Поиск

2022 Karl Stromme - Song Dust {NXN, Naxos Norway} [24-96]

2022 Karl Stromme - Song Dust {NXN, Naxos Norway} [24-96]
Дата записи диска:
12 декабря - 14 декабря 2020
Место записи:
Amper Tone Studio; Kennel Collective
Дата издания диска:
4 февраля 2022
Издатель (лейбл):
Номер по каталогу:
NXN2008
Носитель:
WEB
Формат:
PCM
Тип рипа:
tracks
Контейнер:
FLAC (*.flac)
Количество каналов:
2.0
Разрядность/ЧД:
24/96
Битрейт аудио:
lossless
Время звучания:
00:36:47
Наличие сканов:
только обложка

Треклист:

01 - Nature Boy (02:32)
02 - Opal (07:12)
03 - Dance of the Cohort (02:34)
04 - Bela Waltz (05:51)
05 - VM (02:38)
06 - One Two Trees (08:16)
07 - 0502Y (02:08)
08 - Song Dust (05:33)

Состав:
  •     Acoustic Bass – Gard Kronborg
  •     Guitar – Per-Arne Ferner
  •     Mastered By – Morten Lund
  •     Mixed By – Jo Berger Myhre
  •     Recorded By, Mixed By – Johnny Skalleberg
  •     Trumpet, Synthesizer, Percussion, Bass, Recorded By, Mixed By – Karl Strømme
Доп. инфо:

Song Dust - это первая запись трио трубача Карла Стрёмме. После гастролей в составе джазового молодежного оркестра Европейского союза и записи нескольких альбомов в составе экспериментального коллектива Peloton, Стрёмме в 2019 году выпустил альбом Dynalyd для квинтета. Для своего дебюта на NXN Recordings он объединился с молодыми музыкантами Гардом Кронборгом на акустическом басу и Полом-Андре Фернером на гитаре. Слушателям понравятся как отголоски джаза Западного побережья, так и нордическая прохлада, особенно благодаря выразительной трубе. Традиционное джазовое трио часто включает в себя барабанщика, но в Song Dust его нет. Кроме радостной ударной партии на 5-м треке, всем музыкантам предоставлено достаточно места и времени для создания прекрасных звуковых ландшафтов и пассажей на протяжении всего альбома.

Лог проверки качества
foobar2000 1.4.2 / Dynamic Range Meter 1.1.1
log date: 2022-02-05 17:08:57
--------------------------------------------------------------------------------
Analyzed: Karl StrГёmme / Song Dust
--------------------------------------------------------------------------------
DR         Peak         RMS     Duration Track
--------------------------------------------------------------------------------
DR11      -2.36 dB   -18.66 dB      2:32 01-Nature Boy
DR9       -0.32 dB   -11.92 dB      7:13 02-Opal
DR10      -1.15 dB   -15.78 dB      2:35 03-Dance of the Cohort
DR9       -0.32 dB   -11.74 dB      5:52 04-Bela Waltz
DR11      -0.32 dB   -13.30 dB      2:38 05-VM
DR8       -0.32 dB    -9.92 dB      8:17 06-One Two Trees
DR11      -1.90 dB   -17.82 dB      2:08 07-0502Y
DR11      -0.32 dB   -14.28 dB      5:34 08-Song Dust
--------------------------------------------------------------------------------
Number of tracks:  8
Official DR value: DR10
Samplerate:        96000 Hz
Channels:          2
Bits per sample:   24
Bitrate:           2234 kbps
Codec:             FLAC
================================================================================
23:02
407
Нет комментариев. Ваш будет первым!