Поиск

1955 Gerry Mulligan Quartet feat. Chet Baker - Gerry Mulligan Quartet (2022) {Ermitage} [24-44.1]

1955 Gerry Mulligan Quartet feat. Chet Baker - Gerry Mulligan Quartet (2022) {Ermitage} [24-44.1]
Стили:
Носитель:
WEB
Формат:
PCM
Тип рипа:
tracks
Контейнер:
FLAC (*.flac)
Количество каналов:
2.0
Разрядность/ЧД:
24/44,1
Битрейт аудио:
lossless
Время звучания:
00:37:02
Наличие сканов:
только обложка

01 - Frenesi 03:10
02 - Nights At The Turntable 02:55
03 - Lullaby Of The Leaves 03:16
04 - Jeru 02:31
05 - Cherry 02:59
06 - Swinghouse 03:27
07 - I May Be Wrong 03:02
08 - Aren't You Glad You're You 02:52
09 - I'm Beginning To See The Light 03:09
10 - Makin' Whoopee 02:54
11 - The Nearness Of You 03:28
12 - Tea For Two 03:19

Состав:
  • Baritone Saxophone – Gerry Mulligan
  • Bass – Bob Whitlock (tracks: 1 to 3, 8), Carson Smith (tracks: 4 to 6, 7, 9 to 12)
  • Drums – Chico Hamilton (tracks: 1 to 3, 7), Larry Bunker (tracks: 4 to 6, 7, 8 to 12)
  • Trumpet – Chet Baker
Лог проверки качества
foobar2000 1.4.3 / Dynamic Range Meter 1.1.1
log date: 2022-02-15 16:42:31
--------------------------------------------------------------------------------
Analyzed: Gerry Mulligan Quartet, Gerry Mulligan Quartet, Gerry Mulligan Quartet, Gerry Mulligan Quartet, Gerry Mulligan Quartet, Gerry Mulligan Quartet / Gerry Mulligan Quartet
--------------------------------------------------------------------------------
DR         Peak         RMS     Duration Track
--------------------------------------------------------------------------------
DR13      -8.78 dB   -25.11 dB      3:10 01-Frenesi
DR13      -7.05 dB   -24.70 dB      2:55 02-Nights At The Turntable
DR12     -12.57 dB   -28.31 dB      3:16 03-Lullaby Of The Leaves
DR14      -8.88 dB   -26.38 dB      2:32 04-Jeru
DR12     -10.11 dB   -24.62 dB      3:00 05-Cherry
DR13      -8.20 dB   -24.78 dB      3:28 06-Swinghouse
DR13      -9.01 dB   -25.39 dB      3:02 07-I May Be Wrong
DR13     -10.61 dB   -27.30 dB      2:53 08-Aren't You Glad You're You
DR13      -8.78 dB   -25.26 dB      3:10 09-I'm Beginning To See The Light
DR12     -11.52 dB   -27.10 dB      2:55 10-Makin' Whoopee
DR13     -10.56 dB   -26.28 dB      3:28 11-The Nearness Of You
DR13      -9.73 dB   -26.02 dB      3:19 12-Tea For Two
--------------------------------------------------------------------------------
Number of tracks:  12
Official DR value: DR13
Samplerate:        44100 Hz
Channels:          2
Bits per sample:   24
Bitrate:           1226 kbps
Codec:             FLAC
================================================================================
Скачивание доступно после регистрации!!
Приватный:
Нет (DHT включён)
Размер:
358.32 Мб (375,727,973 байт) » файлов: 17
Участники:
0 раздают, 0 качают (0 участников всего)
Внешние участники:
8 раздают, 2 качают (10 участников всего) [ Обновить ]
00:21
352
Нет комментариев. Ваш будет первым!