Поиск

2022 Boarding Completed, Bard Helgerud, Andreas Dreier, Magnus Sefaniassen Eide - Park Blues {Losen} [24-48]

2022 Boarding Completed, Bard Helgerud, Andreas Dreier, Magnus Sefaniassen Eide - Park Blues {Losen} [24-48]
Стили:
Дата издания диска:
4 февраля 2022
Носитель:
WEB
Формат:
PCM
Тип рипа:
tracks
Контейнер:
FLAC (*.flac)
Количество каналов:
2.0
Разрядность/ЧД:
24/48
Битрейт аудио:
lossless
Время звучания:
00:47:09
Наличие сканов:
только обложка

1. Hvittingfoss Skyline  07:41
2. Park Blues  04:47
3. Manic Minor  05:18
4. Endelig Hjemme  05:27
5. Innen klokken slår åtte (Skål Torbjørn!)  05:42
6. Ekte Kjærlighet feat. Live Foyn Friis  07:20
7. Vinter feat. Live Foyn Friis  04:21
8. På stylter gjennom Kardamili feat. Live Foyn Friis  06:31

Состав:
  • Bård Helgerud — guitar
  • Foyn Friis — vocals
  • Andreas Dreier — bass
  • Magnus Sefaniassen Eide — drums
Лог проверки качества
foobar2000 1.4.2 / Dynamic Range Meter 1.1.1
log date: 2022-02-05 16:58:52
--------------------------------------------------------------------------------
Analyzed: Boarding Completed / Park Blues
--------------------------------------------------------------------------------
DR         Peak         RMS     Duration Track
--------------------------------------------------------------------------------
DR11      -0.40 dB   -12.59 dB      7:41 01-Hvittingfoss Skyline
DR11      -0.40 dB   -13.09 dB      4:48 02-Park Blues
DR11      -0.40 dB   -12.46 dB      5:19 03-Manic Minor
DR12      -0.40 dB   -14.58 dB      5:27 04-Endelig Hjemme
DR10      -0.40 dB   -11.05 dB      5:42 05-Innen klokken slГҐr ГҐtte (SkГҐl TorbjГёrn!)
DR11      -0.40 dB   -12.89 dB      7:20 06-Ekte Kjærlighet
DR10      -0.40 dB   -13.85 dB      4:22 07-Vinter
DR10      -0.40 dB   -11.90 dB      6:31 08-PГҐ stylter gjennom Kardamili
--------------------------------------------------------------------------------
Number of tracks:  8
Official DR value: DR11
Samplerate:        48000 Hz
Channels:          2
Bits per sample:   24
Bitrate:           1704 kbps
Codec:             FLAC
================================================================================
23:15
308
Нет комментариев. Ваш будет первым!