Поиск

2022 Jamile, Tony Davis - Daring Two Be {La Reserve} [24-48]

2022 Jamile, Tony Davis - Daring Two Be {La Reserve} [24-48]
Стили:
Место записи:
8 июля 2022
Носитель:
WEB
Формат:
PCM
Тип рипа:
tracks
Контейнер:
FLAC (*.flac)
Количество каналов:
2.0
Разрядность/ЧД:
24/48
Битрейт аудио:
lossless
Наличие сканов:
только обложка

01. Moon Blue  04:48
02. Mírame Más  03:56
03. Never Will I Marry  03:27
04. Samba de Rei feat. Steve Wilson  03:15
05. Baby I Don't Cry over You  04:11
06. Pássaro Imortal  05:03
07. September in the Rain  03:20
08. Dr. Feelgood (Love is a Serious Business) feat. Steve Wilson  03:53
09. Day in Day Out  03:47
10. Until You Come Back to Me (That's What I'm Gonna Do)  03:31

 

Состав:
  • Jamile — vocals
  • Tony Davis — guitar
Лог проверки качества
foobar2000 1.5.5 / Замер динамического диапазона (DR) 1.1.1
Дата отчёта:  2022-10-31 20:15:26
--------------------------------------------------------------------------------
Анализ:   Jamile / Daring Two Be
--------------------------------------------------------------------------------
DR         Пики         RMS           Продолжительность трека
--------------------------------------------------------------------------------
DR11       0.00 дБ   -14.20 дБ      4:48 01-Moon Blue
DR10       0.00 дБ   -12.74 дБ      3:57 02-Mírame Más
DR11       0.00 дБ   -14.66 дБ      3:28 03-Never Will I Marry
DR11       0.00 дБ   -13.27 дБ      3:15 04-Samba de Rei
DR10       0.00 дБ   -14.09 дБ      4:12 05-Baby I Don't Cry over You
DR11       0.00 дБ   -14.33 дБ      5:03 06-Pássaro Imortal
DR10       0.00 дБ   -13.41 дБ      3:21 07-September in the Rain
DR10       0.00 дБ   -12.60 дБ      3:54 08-Dr. Feelgood (Love is a Serious Business)
DR11       0.00 дБ   -14.13 дБ      3:47 09-Day in Day Out
DR11       0.00 дБ   -14.71 дБ      3:32 10-Until You Come Back to Me (That's What I'm Gonna Do)
--------------------------------------------------------------------------------
Количество треков: 10
Реальные значения DR: DR11
Частота:   48000 Гц
Каналов:   2
Разрядность:   24
Битрейт:   1432 кбит/с
Кодек:   FLAC
================================================================================
Приватный:
Нет (DHT включён)
Размер:
415.74 Мб (435,933,446 байт) » файлов: 11
Участники:
0 раздают, 0 качают (0 участников всего)
Внешние участники:
5 раздают, 1 качают (6 участников всего) [ Обновить ]
22:57
308
Нет комментариев. Ваш будет первым!