Поиск

2020 Tony Davis - Golden Year {Posi-Tone} [DSD64]

2020 Tony Davis - Golden Year {Posi-Tone} [DSD64]
Стили:
Дата записи диска:
24 сентября 2020
Место записи:
Acoustic Recording, Brooklyn, NY
Дата издания диска:
17 июля 2020
Издатель (лейбл):
Носитель:
WEB
Формат:
DSD
Тип рипа:
tracks
Контейнер:
DSF (*.dsf)
Количество каналов:
2.0
Разрядность/ЧД:
64 (2,8 MHz/1 Bit)
Битрейт аудио:
lossless
Наличие сканов:
только обложка

Треклист:

01. Golden Year (4:06)
02. Braeburn (6:09)
03. May This Be Love (4:26)
04. Night Ride (4:42)
05. Orange Feathers (4:07)
06. Sinhá (5:28)
07. Hypnagogia (4:23)
08. Con Alma (6:12)
09. El Gran Birane (3:51)
10. Lake Sebago (5:17)
11. Tua Imagem (2:29)

Состав:
  • Tony Davis — guitar
  • David Bryant — piano
  • Dezron Douglas — bass
  • Eric McPherson — drums
  • Steve Wilson — alto sax 2, flute 6
  • Steve Davis — trombone 2 & 8
  • Alina Engibaryan — vocals 5 & 10
  • JK Kim — drums 5 & 10
Лог проверки качества
foobar2000 1.6.8 / Dynamic Range Meter 1.1.1
log date: 2022-05-03 11:44:40
--------------------------------------------------------------------------------
Analyzed: Tony Davis / Golden Year
--------------------------------------------------------------------------------
DR         Peak         RMS     Duration Track
--------------------------------------------------------------------------------
DR10      -6.97 dB   -18.52 dB      4:06 01-Golden Year
DR9       -6.85 dB   -17.31 dB      6:09 02-Braeburn
DR9       -6.98 dB   -17.81 dB      4:26 03-May This Be Love
DR9       -6.84 dB   -17.31 dB      4:42 04-Night Ride
DR10      -6.99 dB   -19.27 dB      4:07 05-Orange Feathers
DR10      -6.99 dB   -18.30 dB      5:28 06-Sinhá
DR10      -6.98 dB   -18.61 dB      4:23 07-Hypnagogia
DR11      -6.98 dB   -20.04 dB      6:12 08-Con Alma
DR9       -6.98 dB   -17.64 dB      3:51 09-El Gran Birane
DR10      -6.99 dB   -18.03 dB      5:17 10-Lake Sebago
DR9       -9.25 dB   -20.42 dB      2:29 11-Tua Imagem
--------------------------------------------------------------------------------
Number of tracks:  11
Official DR value: DR10
Samplerate:        2822400 Hz / PCM Samplerate: 88200 Hz
Channels:          2
Bits per sample:   1
Bitrate:           5645 kbps
Codec:             DSD64
================================================================================
Download available for power users only.
To become a power user - read FAQ.
21:36
91
Нет комментариев. Ваш будет первым!