Поиск

1962 Eddie Jefferson - Letter From Home {Music Manager} [24-48]

1962 Eddie Jefferson - Letter From Home {Music Manager} [24-48]
Стили:
Дата записи диска:
декабря 1961 - февраль 1962
Издатель (лейбл):
Носитель:
WEB
Формат:
PCM
Тип рипа:
tracks
Контейнер:
FLAC (*.flac)
Количество каналов:
2.0
Разрядность/ЧД:
24/48
Битрейт аудио:
lossless
Наличие сканов:
только обложка

01 - Letter from Home 03:02
02 - Take the "A" Train 03:12
03 - Billie's Bounce 02:47
04 - Back in Town 03:09
05 - Soft and Furry 02:51
06 - A Night in Tunisia 03:34
07 - Things Are Getting Better 03:11
08 - Keep Walkin' 02:58
09 - I Feel So Good 03:11
10 - Bless My Soul (Parker's Mood) 03:27

Состав:
  •     Alto Saxophone, Flute – James Moody (tracks: 1, 2, 4, 6, 7, 9)
  •     Arranged By – Ernie Wilkins
  •     Baritone Saxophone – Arthur Clarke (tracks: 1, 2, 4, 6, 7, 9)
  •     Bass – Sam Jones
  •     Drums – Louis Hayes (tracks: 3, 5, 8, 10), Osie Johnson (tracks: 1, 2, 4, 6, 7, 9)
  •     Guitar – Barry Galbraith
  •     Piano – Joe Zawinul (tracks: 1, 7, 9), Junior Mance (tracks: 3, 5, 8, 10), Wynton Kelly (tracks: 2, 4, 6)
  •     Tenor Saxophone – Johnny Griffin
  •     Trombone – Jimmy Cleveland (tracks: 1, 2, 4, 6, 7, 9)
  •     Trumpet – Clark Terry (tracks: 1, 7, 9), Ernie Royal (tracks: 1, 2, 4, 6, 7, 9), Joe Newman (tracks: 2, 4, 6)
  •     Vocals – Eddie Jefferson
Лог проверки качества
foobar2000 1.6.2 / Dynamic Range Meter 1.1.1
log date: 2021-07-14 00:32:08
--------------------------------------------------------------------------------
Analyzed: Eddie Jefferson / Letter from Home
--------------------------------------------------------------------------------
DR         Peak         RMS     Duration Track
--------------------------------------------------------------------------------
DR12      -0.01 dB   -15.45 dB      3:02 01-Letter from Home
DR13      -0.06 dB   -15.08 dB      3:12 02-Take the "A" Train
DR12      -0.03 dB   -14.76 dB      2:47 03-Billie's Bounce
DR12      -0.03 dB   -14.76 dB      3:10 04-Back in Town
DR11      -0.08 dB   -14.35 dB      2:52 05-Soft and Furry
DR12      -0.07 dB   -14.15 dB      3:35 06-A Night in Tunisia
DR12      -0.02 dB   -14.76 dB      3:11 07-Things Are Getting Better
DR11      -0.02 dB   -14.44 dB      2:58 08-Keep Walkin'
DR11      -0.06 dB   -13.41 dB      3:12 09-I Feel So Good
DR11      -0.02 dB   -14.77 dB      3:28 10-Bless My Soul (Parker's Mood)
--------------------------------------------------------------------------------
Number of tracks:  10
Official DR value: DR12
Samplerate:        48000 Hz
Channels:          2
Bits per sample:   24
Bitrate:           1207 kbps
Codec:             FLAC
================================================================================
23:49
314
Нет комментариев. Ваш будет первым!