Поиск

2022 Alma Naidu - Alma {Leopard} [24-44.1]

2022 Alma Naidu - Alma {Leopard} [24-44.1]
Стили:
Дата издания диска:
11 февраля 2022
Номер по каталогу:
D 77096
Носитель:
WEB
Формат:
PCM
Тип рипа:
tracks
Контейнер:
FLAC (*.flac)
Количество каналов:
2.0
Разрядность/ЧД:
24/44,1
Битрейт аудио:
lossless
Время звучания:
00:48:28
Наличие сканов:
только обложка

01. Just a Word (3:53)
02. Hold on To Me (3:58)
03. Something ´bout the Rain (4:37)
04. And So It Goes (4:47)
05. Illusion (3:33)
06. Interlude (1:18)
07. Silence Plays Your Song (3:40)
08. Heart Pace (5:15)
09. Walberla (4:05)
10. Wondering (4:13)
11. White Tulip (4:23)
12. Another Kind of Love (4:46)

Состав:
  • Alma Naidu, vocals, backing vocals
  • Simon Oslender, keyboards
  • Claus Fischer, bass
  • Wolfgang Haffner, drums
  • Liselotte Östblom, backing vocals
Лог проверки качества
foobar2000 1.6.6 / Dynamic Range Meter 1.1.1
log date: 2022-02-23 09:24:48
--------------------------------------------------------------------------------
Analyzed: Alma Naidu / Alma
--------------------------------------------------------------------------------
DR         Peak         RMS     Duration Track
--------------------------------------------------------------------------------
DR12      -0.30 dB   -17.41 dB      3:53 01-Just a Word
DR8       -1.30 dB   -12.92 dB      3:58 02-Hold on To Me
DR8       -0.80 dB   -13.52 dB      4:38 03-Something ´bout the Rain
DR12      -0.50 dB   -17.20 dB      4:48 04-And So It Goes
DR8       -0.31 dB   -11.98 dB      3:34 05-Illusion
DR7       -1.34 dB   -13.28 dB      1:18 06-Interlude
DR9       -1.30 dB   -15.02 dB      3:40 07-Silence Plays Your Song
DR11      -0.40 dB   -15.56 dB      5:16 08-Heart Pace
DR11      -1.30 dB   -13.88 dB      4:06 09-Walberla
DR10      -1.30 dB   -16.23 dB      4:14 10-Wondering
DR8       -1.30 dB   -14.30 dB      4:24 11-White Tulip
DR12      -1.30 dB   -16.63 dB      4:46 12-Another Kind of Love
--------------------------------------------------------------------------------
Number of tracks:  12
Official DR value: DR10
Samplerate:        44100 Hz
Channels:          2
Bits per sample:   24
Bitrate:           1404 kbps
Codec:             FLAC
================================================================================
Приватный:
Нет (DHT включён)
Размер:
486.47 Мб (510,095,629 байт) » файлов: 14
Участники:
1 раздают, 0 качают (1 участников всего)
Внешние участники:
5 раздают, 1 качают (6 участников всего) [ Обновить ]
20:03
292
Нет комментариев. Ваш будет первым!