Поиск

2020 VA - Master Superior Audiophile {Master Music} [DSF64]

2020 VA - Master Superior Audiophile {Master Music} [DSF64]
Стили:
Номер по каталогу:
MACD 22062
Носитель:
SACD
Формат:
DSD
Тип рипа:
tracks
Контейнер:
DSF (*.dsf)
Количество каналов:
2.0
Разрядность/ЧД:
64 (2,8 MHz/1 Bit)
Битрейт аудио:
lossless
Время звучания:
01:07:00
Наличие сканов:
только обложка

01. To A New Day - Sinne Eeg & T.D.R.B.B.
02. The Sound Of Silence - Stefanie Boltz
03. Holy Grail - Hanne Boel
04. Natural Woman - Chie Ayado
05. You Don't Know Me - Tsuyoshi Yamamoto Trio
06. Wichita Lineman - Simone Kopmajer
07. Bless The Road - Mary Black
08. These Ordinary Things - Sinne Eeg & T.D.R.B.B.
09. That Old Black Magic - Three Tenors
10. Angel Eyes - Chie Ayado
11. Bright Life - Stefanie Boltz
12. Estate - Alexandra Shakina
13. Nicole - Hanne Boel
14. Tavalod - Renaud Garcia-Fons/C. Antonini

Лог проверки качества
foobar2000 1.6.8 / Dynamic Range Meter 1.1.1
log date: 2022-02-24 17:49:21
--------------------------------------------------------------------------------
Analyzed: Alexandra Shakina / Master Superior Audiophile 2020  (1)
          Chie Ayado  / Master Superior Audiophile 2020  (2-3)
          Garica-Fons  / Master Superior Audiophile 2020  (4)
          Hanne Boel  / Master Superior Audiophile 2020  (5-6)
          Mary Black  / Master Superior Audiophile 2020  (7)
          Simone Kopmajer  / Master Superior Audiophile 2020  (8)
          Sinne Eeg  / Master Superior Audiophile 2020  (9-10)
          Stefanie Boltz  / Master Superior Audiophile 2020  (11-12)
          Three Tenors Trio  / Master Superior Audiophile 2020  (13)
          Tsuyoshi Yamamoto Trio  / Master Superior Audiophile 2020  (14)
--------------------------------------------------------------------------------
DR         Peak         RMS     Duration Track
--------------------------------------------------------------------------------
DR12      -6.36 dB   -20.20 dB      5:43 12-Estate
DR10      -6.74 dB   -19.75 dB      5:18 04-Natural Woman
DR10      -6.37 dB   -19.12 dB      4:40 10-Angel Eyes
DR10      -7.26 dB   -20.06 dB      4:36 14-Tavalod
DR10      -6.39 dB   -18.07 dB      5:05 03- Holy Grail
DR11      -6.45 dB   -19.95 dB      4:06 13-Nicole
DR10      -7.60 dB   -19.37 dB      3:43 07-Bless the Road
DR9       -7.85 dB   -18.71 dB      6:03 06-Wichita Lineman
DR11      -6.70 dB   -19.80 dB      5:44 01-To A New Day
DR11      -6.34 dB   -19.92 dB      5:04 08-Those Ordinary Things
DR11      -6.37 dB   -21.15 dB      4:07 02-The Sound Of Silence
DR10      -6.36 dB   -19.39 dB      4:02 11-Bright Life
DR10      -7.76 dB   -19.33 dB      4:58 09-That Old Magic
DR11      -6.40 dB   -21.52 dB      3:56 05-You Don't Know Me
--------------------------------------------------------------------------------
Number of tracks:  14
Official DR value: DR10
Samplerate:        2822400 Hz / PCM Samplerate: 88200 Hz
Channels:          2
Bits per sample:   1
Bitrate:           5645 kbps
Codec:             DSD64
================================================================================
18:50
494
Нет комментариев. Ваш будет первым!