Поиск

2017 Ben Allison - Layers of the City {Sonic Camera} [24-96]

2017 Ben Allison - Layers of the City {Sonic Camera} [24-96]
Стили:
Дата записи диска:
5 января - 6 января 2017
Место записи:
Maggie's Farm, Pipersville, PA
Дата издания диска:
22 июня 2017
Носитель:
WEB
Формат:
PCM
Тип рипа:
tracks
Контейнер:
FLAC (*.flac)
Количество каналов:
2.0
Разрядность/ЧД:
24/96
Битрейт аудио:
lossless
Наличие сканов:
только обложка

1. Magic Number (06:47)
2. Enter the Dragon (08:12)
3. Ghost Ship (04:40)
4. Layers of the City (04:44)
5. The Detective's Wife (06:18)
6. Blowback (05:14)
7. Get Me Offa this Thing (05:15)

Состав:
  • Ben Allison: acoustic & electric bass;
  • Jeremy Pelt: trumpet;
  • Steve Cardenas: guitar;
  • Frank Kimbrough: piano;
  • Allan Mednard: drums
Лог проверки качества
foobar2000 1.0.3 / Dynamic Range Meter 1.1.1
log date: 2022-01-05 13:26:43
--------------------------------------------------------------------------------
Analyzed: Ben Allison / Layers of the City
--------------------------------------------------------------------------------
DR         Peak         RMS     Duration Track
--------------------------------------------------------------------------------
DR9       -0.50 dB   -12.64 dB      6:52 01-Magic Number
DR7       -0.50 dB    -9.84 dB      8:16 02-Enter the Dragon
DR10      -0.50 dB   -13.91 dB      4:44 03-Ghost Ship
DR7       -0.50 dB   -10.24 dB      4:48 04-Layers of the City
DR9       -0.50 dB   -11.87 dB      6:22 05-The Detective’s Wife
DR7       -0.50 dB    -9.70 dB      5:18 06-Blowback
DR8       -0.50 dB   -13.46 dB      5:17 07-Get Me Offa This Thing
--------------------------------------------------------------------------------
Number of tracks:  7
Official DR value: DR8
Samplerate:        96000 Hz
Channels:          2
Bits per sample:   24
Bitrate:           2497 kbps
Codec:             FLAC
================================================================================
Приватный:
Нет (DHT включён)
Размер:
819.07 Мб (858,858,663 байт) » файлов: 8
Участники:
0 раздают, 0 качают (0 участников всего)
Внешние участники:
5 раздают, 1 качают (6 участников всего) [ Обновить ]
15:05
351
Нет комментариев. Ваш будет первым!