Поиск

1977 Lionel Hampton - Blackout (2018) {FL Distribution} [24-96]

1977 Lionel Hampton - Blackout (2018) {FL Distribution} [24-96]
Дата записи диска:
8 июля - 9 июля 1977
Дата издания диска:
3 сентября 1977
Носитель:
WEB
Формат:
PCM
Тип рипа:
tracks
Контейнер:
FLAC (*.flac)
Количество каналов:
2.0
Разрядность/ЧД:
24/96
Битрейт аудио:
lossless
Наличие сканов:
только обложка

01 - Blackout 06:37
02 - After You've Gone 03:37
03 - Twelfth Street Rag 04:30
04 - Birth Of The Blues 05:24
05 - Glad Hamp 06:50
06 - I Can't Give You Anything But Love, Baby 05:50
07 - Stompin' At The Savoy 06:03

Состав:
  •     Alto Saxophone – Frank Wess
  •     Bass – George Mraz
  •     Congas – Sam Turner
  •     Drum – Grady Tate
  •     Executive Producer – Robert W. Schachner
  •     Guitar – Vinnie Bell
  •     Piano – Roland Hana
  •     Producer – Lionel Hampton
  •     Trombone – Janice Robinson (2)
  •     Trumpet – Victor Paz
  •     Vibraphone – Lionel Hampton
  • Executive Producer – Robert W. Schachner
  • Producer – Lionel Hampton
Лог проверки качества
foobar2000 1.3.7 / Dynamic Range Meter 1.1.1
log date: 2018-09-15 12:42:54
--------------------------------------------------------------------------------
Analyzed: Lionel Hampton / Blackout
--------------------------------------------------------------------------------
DR         Peak         RMS     Duration Track
--------------------------------------------------------------------------------
DR12      -0.10 dB   -15.26 dB      6:38 01-Blackout
DR13      -1.31 dB   -16.48 dB      3:38 02-After You've Gone
DR12      -1.75 dB   -15.82 dB      4:30 03-Twelfth Street Rag
DR12      -1.88 dB   -16.12 dB      5:24 04-Birth Of The Blues
DR12      -2.02 dB   -16.06 dB      6:51 05-Glad Hamp
DR13      -2.41 dB   -17.41 dB      5:51 06-I Can't Give You Anything But Love, Baby
DR12      -4.16 dB   -17.67 dB      6:03 07-Stompin' At The Savoy
--------------------------------------------------------------------------------
Number of tracks:  7
Official DR value: DR12
Samplerate:        96000 Hz
Channels:          2
Bits per sample:   24
Bitrate:           2506 kbps
Codec:             FLAC
================================================================================
14:16
409
Нет комментариев. Ваш будет первым!