Поиск

2022 Pete Malinverni - On The Town - Pete Malinverni Plays Leonard Bernstein {Planet Arts} [24-48]

2022 Pete Malinverni - On The Town - Pete Malinverni Plays Leonard Bernstein {Planet Arts} [24-48]
Стили:
Дата записи диска:
11 апреля 2021
Место записи:
Rudy Van Gelder Studio, Englewood Cliffs, New Jersey, USA
Дата издания диска:
17 января 2022
Номер по каталогу:
302124
Носитель:
WEB
Формат:
PCM
Тип рипа:
tracks
Контейнер:
FLAC (*.flac)
Количество каналов:
2.0
Разрядность/ЧД:
24/48
Битрейт аудио:
lossless
Время звучания:
00:58:51
Наличие сканов:
только обложка

Треклист:

01. New York New York  05:04
02. Lucky to Be Me  05:36
03. Somewhere  05:18
04. Cool  05:33
05. Simple Song  06:05
06. I Feel Pretty  05:59
07. Lonely Town  05:56
08. Some Other Time  05:04
09. It’s Love  08:04
10. A Night on the Town  06:08

Состав:
  •     Bass – Ugonna Okegwo
  •     Drums – Jeff Hamilton
  •     Engineer – Maureen Sickler
  •     Engineer [Mastering Engineer] – Silas Brown
  •     Piano, Producer, Liner Notes – Pete Malinverni
Доп. инфо:

Leonard Bernstein (1918-1990) - американский композитор, пианист и дирижёр родился в еврейской семье, приехавшей из Ровно, Украина. Дирижировал многими ведущими оркестрами мира, главный дирижёр Нью-Йоркской филармонии (1958-1969). Впервые исполнил многие произведения американских композиторов. Автор балетов, симфоний, мюзиклов и любитель джаза.Пианист, композитор и педагог Pete Malinverni четыре десятилетия на джазовой сцене Нью-Йорка пересекался с большим количеством музыкантов, но встреча, которая произошла около 30 лет назад зародила идею воплощенную в новом альбоме On the Town, Pete Malinverni Plays Leonard Bernstein.

В то время он работал в престижном ресторане и однажды вечером там проходила вечеринка в честь открытия постановки новой оперы. Когда он исполнял на фортепиано арии, вошел Бернстайн, и молодой пианист тут же заиграл композицию Lucky To Be Me композитора. Бернштейн признал дань уважения и расхваливал достоинства пианиста, проведя значительную часть вечера с ним.

Лог проверки качества
foobar2000 1.4.2 / Dynamic Range Meter 1.1.1
log date: 2022-01-18 09:50:04
--------------------------------------------------------------------------------
Analyzed: Pete Malinverni / On The Town, Pete Malinverni Plays Leonard Bernstein
--------------------------------------------------------------------------------
DR         Peak         RMS     Duration Track
--------------------------------------------------------------------------------
DR11      -0.18 dB   -12.62 dB      5:05 01-New York New York
DR12      -0.18 dB   -13.98 dB      5:37 02-Lucky to Be Me
DR14      -0.18 dB   -16.46 dB      5:18 03-Somewhere
DR12      -0.18 dB   -13.19 dB      5:33 04-Cool
DR12      -0.18 dB   -14.01 dB      6:05 05-Simple Song
DR12      -0.18 dB   -13.36 dB      6:00 06-I Feel Pretty
DR13      -0.46 dB   -16.34 dB      5:56 07-Lonely Town
DR11      -0.18 dB   -12.86 dB      5:04 08-Some Other Time
DR13      -0.21 dB   -15.14 dB      8:04 09-It’s Love
DR12      -0.18 dB   -13.70 dB      6:09 10-A Night on the Town
--------------------------------------------------------------------------------
Number of tracks:  10
Official DR value: DR12
Samplerate:        48000 Hz
Channels:          2
Bits per sample:   24
Bitrate:           891 kbps
Codec:             FLAC
================================================================================
Download available for power users only.
To become a power user - read FAQ.
19:35
91
Нет комментариев. Ваш будет первым!