Поиск

2021 Yelena Eckemoff - Adventures of the Wildflower {L&H Production HD} [24-96]

2021 Yelena Eckemoff - Adventures of the Wildflower {L&H Production HD} [24-96]
Стили:
Битрейт аудио:
lossless
Доп. инфо:

Формат записи/Источник записи: [TR24][OF]
Наличие водяных знаков: Нет
Год издания: 2021
Издатель (лейбл): L & H Production HD
Продолжительность: 02:01:51
Наличие сканов в содержимом раздачи: Только обложка альбома
Контейнер: FLAC (*.flac)
Тип рипа: tracks
Разрядность: 24/96
Формат: PCM
Количество каналов: 2.0
Источник (релизер): qobuz.com

Лог проверки качества
foobar2000 1.4.8 / Dynamic Range Meter 1.1.1
log date: 2021-03-19 18:42:57

--------------------------------------------------------------------------------
Analyzed: Yelena Eckemoff / Adventures of the Wildflower
--------------------------------------------------------------------------------

DR         Peak         RMS     Duration Track
--------------------------------------------------------------------------------
DR8       -0.80 dB   -11.90 dB      6:17 01-In the Ground
DR10      -0.80 dB   -15.26 dB      6:21 02-Germination
DR8       -0.80 dB   -10.88 dB      9:06 03-Weeding the Garden
DR8       -0.80 dB   -10.55 dB      4:25 04-Dos Chasing a Mouse
DR7       -0.80 dB   -10.89 dB      7:06 05-Rain
DR7       -0.80 dB   -11.33 dB      6:59 06-Hoome by the Fence
DR8       -0.80 dB   -13.51 dB      6:10 07-Chickens
DR9       -0.80 dB   -13.64 dB      8:52 08-Drought
DR8       -0.80 dB   -11.74 dB      5:21 09-Thundershower
DR9       -0.80 dB   -12.96 dB      7:44 10-Winter Slamber
DR8       -0.80 dB   -11.92 dB      6:10 11-Waking up in the Spring
DR8       -0.80 dB   -12.09 dB      7:52 12-Buds and Flowers
DR10      -0.80 dB   -14.07 dB      7:47 13-Butterflies
DR9       -0.80 dB   -12.04 dB      5:09 14-Hummingbirds
DR7       -0.80 dB   -11.14 dB      4:48 15-Children Playing with Seed Pods
DR11      -0.80 dB   -15.04 dB      8:51 16-Dying
DR12      -0.80 dB   -16.64 dB      5:49 17-Another Winter
DR8       -0.80 dB   -11.11 dB      7:13 18-Baby Columbines
--------------------------------------------------------------------------------

Number of tracks:  18
Official DR value: DR9
Samplerate:        96000 Hz
Channels:          2
Bits per sample:   24
Bitrate:           2798 kbps
Codec:             FLAC
================================================================================
No seeders - write personal message to M0p94ok. Any questions - support@pro-jazz.com.
Нет сидеров - пишите в личку M0p94ok. Есть вопросы - support@pro-jazz.com
22:24
97
Нет комментариев. Ваш будет первым!