Поиск

2017 Richie Beirach Trio - Manhattan Reverie {Venus} [DSD64 ISO]

2017 Richie Beirach Trio - Manhattan Reverie {Venus} [DSD64 ISO]
Стили:
Дата записи диска:
25 марта - 26 марта 2006
Место записи:
The Studio, New York City, NY, USA
Издатель (лейбл):
Номер по каталогу:
VHGD-205
Битрейт аудио:
lossless
Доп. инфо:

Формат записи/Источник записи: [SACD-R][OF]
Наличие водяных знаков: Нет
Год издания диска: 2017
Продолжительность: 01:09:27
Наличие сканов в содержимом раздачи: Только обложка альбома

Контейнер: ISO (*.iso)
Тип рипа: image
Разрядность: 64(2,8 MHz/1 Bit)
Формат: DSD
Количество каналов: 2.0

Доп. информация: venusrecords
Источник (релизер): jazzy pic

 

Лог проверки качества
foobar2000 1.6.4 / Dynamic Range Meter 1.1.1
log date: 2021-03-19 19:20:52

--------------------------------------------------------------------------------
Analyzed: RICHIE BEIRACH TRIO / Manhattan Reverie
--------------------------------------------------------------------------------

DR         Peak         RMS     Duration Track
--------------------------------------------------------------------------------
DR8       -4.21 dB   -14.89 dB      5:14 01-You Don't Know What Love Is
DR8       -4.39 dB   -15.71 dB      6:04 02-On Green Dolphin Street
DR8       -4.36 dB   -14.67 dB      6:35 03-If I Were A Bell
DR10      -4.45 dB   -17.59 dB      5:07 04-Manhattan Reverie
DR11      -4.47 dB   -18.56 dB      8:49 05-Etude
DR7       -4.23 dB   -14.00 dB      9:02 06-Transition
DR8       -4.24 dB   -15.48 dB      8:34 07-Stella By Starlight
DR10      -4.45 dB   -17.54 dB      5:37 08-Veils
DR9       -4.27 dB   -16.94 dB      6:30 09-Blood Count
DR9       -3.87 dB   -15.84 dB      7:52 10-Footprints
--------------------------------------------------------------------------------

Number of tracks:  10
Official DR value: DR9

Samplerate:        2822400 Hz / PCM Samplerate: 88200 Hz
Channels:          2
Bits per sample:   1
Bitrate:           5645 kbps
Codec:             DSD64
================================================================================
No seeders - write personal message to M0p94ok. Any questions - support@pro-jazz.com.
Нет сидеров - пишите в личку M0p94ok. Есть вопросы - support@pro-jazz.com
22:55
97
Нет комментариев. Ваш будет первым!