Поиск

2021 Veronica Swift - This Bitter Earth {Mack Avenue} [24-96]

2021 Veronica Swift - This Bitter Earth {Mack Avenue} [24-96]
Стили:
Издатель (лейбл):
Битрейт аудио:
lossless
Доп. инфо:

Формат записи/Источник записи: [TR24][OF]
Наличие водяных знаков: Нет
Год издания: 2021
Продолжительность: 01:01:06
Наличие сканов в содержимом раздачи: Только обложка альбома
Контейнер: FLAC (*.flac)
Тип рипа: tracks
Разрядность: 24/96
Формат: PCM
Количество каналов: 2.0
Источник (релизер): highresaudio.com

Лог проверки качества
foobar2000 1.4.8 / Dynamic Range Meter 1.1.1
log date: 2021-03-20 07:53:19

--------------------------------------------------------------------------------
Analyzed: Veronica Swift / This Bitter Earth
--------------------------------------------------------------------------------

DR         Peak         RMS     Duration Track
--------------------------------------------------------------------------------
DR11       0.00 dB   -15.32 dB      4:27 01-This Bitter Earth
DR10       0.00 dB   -13.01 dB      4:11 02-How Lovely to Be a Woman
DR11       0.00 dB   -14.30 dB      5:16 03-You've Got to Be Carefully Taught
DR10       0.00 dB   -13.00 dB      6:19 04-Getting to Know You
DR13       0.00 dB   -17.83 dB      4:50 05-The Man I Love
DR9        0.00 dB   -11.14 dB      4:25 06-You're the Dangerous Type
DR11       0.00 dB   -15.25 dB      5:20 07-Trust in Me
DR10      -4.06 dB   -19.08 dB      2:12 08-He Hit Me (And It Felt Like a Kiss)
DR11       0.00 dB   -15.84 dB      4:56 09-As Long as He Needs Me
DR10       0.00 dB   -13.76 dB      2:54 10-Everybody Has the Right to Be Wrong
DR10       0.00 dB   -14.45 dB      4:17 11-Prisoner of Love
DR10       0.00 dB   -12.12 dB      6:21 12-The Sports Page
DR8        0.00 dB   -12.27 dB      5:44 13-Sing
--------------------------------------------------------------------------------

Number of tracks:  13
Official DR value: DR10
Samplerate:        96000 Hz
Channels:          2
Bits per sample:   24
Bitrate:           2824 kbps
Codec:             FLAC
================================================================================
No seeders - write personal message to M0p94ok. Any questions - support@pro-jazz.com.
Нет сидеров - пишите в личку M0p94ok. Есть вопросы - support@pro-jazz.com
23:08
88
Нет комментариев. Ваш будет первым!