Поиск

2021 Nik Bärtsch - Entendre {ECM} [24-96]

2021 Nik Bärtsch - Entendre {ECM} [24-96]
Дата издания диска:
19 марта 2021
Издатель (лейбл):
Номер по каталогу:
ECM 2703
Битрейт аудио:
lossless
Доп. инфо:

Формат записи/Источник записи: [TR24][OF]
Наличие водяных знаков: Нет
Год издания: 2021
Продолжительность: 00:53:17
Наличие сканов в содержимом раздачи: Буклет PDF
Контейнер: FLAC (*.flac)
Тип рипа: tracks
Разрядность: 24/96
Формат: PCM
Количество каналов: 2.0
Источник (релизер): qobuz.com

Лог проверки качества
foobar2000 1.4.8 / Dynamic Range Meter 1.1.1
log date: 2021-03-20 08:30:33

--------------------------------------------------------------------------------
Analyzed: Nik Bärtsch / Entendre
--------------------------------------------------------------------------------

DR         Peak         RMS     Duration Track
--------------------------------------------------------------------------------
DR13      -4.60 dB   -25.01 dB      8:57 01-Modul 58_12
DR14      -4.91 dB   -24.78 dB      8:44 02-Modul 55
DR15      -5.99 dB   -24.69 dB     13:55 03-Modul 26
DR15      -6.43 dB   -25.44 dB      6:22 04-Modul 13
DR13      -3.01 dB   -23.14 dB     10:06 05-Modul 5
DR16      -9.45 dB   -29.34 dB      5:15 06-Déjà-vu, Vienna
--------------------------------------------------------------------------------

Number of tracks:  6
Official DR value: DR14
Samplerate:        96000 Hz
Channels:          2
Bits per sample:   24
Bitrate:           2055 kbps
Codec:             FLAC
================================================================================
No seeders - write personal message to M0p94ok. Any questions - support@pro-jazz.com.
Нет сидеров - пишите в личку M0p94ok. Есть вопросы - support@pro-jazz.com
14:54
70
Нет комментариев. Ваш будет первым!