Поиск

2021 Kali Trio - Loom {Ronin Rhythm} [24-96]

2021 Kali Trio - Loom {Ronin Rhythm} [24-96]
Стили:
Битрейт аудио:
lossless
Доп. инфо:

Формат записи/Источник записи: [TR24][OF]
Наличие водяных знаков: Нет
Год издания/переиздания диска: 2021
Издатель (лейбл): Ronin Rhythm Records
Продолжительность: 00:45:11
Наличие сканов в содержимом раздачи: Только обложка альбома

Контейнер: FLAC (*.flac)
Тип рипа: tracks
Разрядность: 24/96
Формат: PCM
Количество каналов: 2.0

Источник (релизер): bandcamp

Лог проверки качества
foobar2000 1.6.2 / Dynamic Range Meter 1.1.1
log date: 2021-03-19 10:53:39

--------------------------------------------------------------------------------
Analyzed: KALI Trio / LOOM
--------------------------------------------------------------------------------

DR         Peak         RMS     Duration Track
--------------------------------------------------------------------------------
DR9       -0.05 dB   -12.05 dB     11:25 01-Shipol
DR10      -0.05 dB   -11.97 dB     10:52 02-Transitoriness
DR10      -0.05 dB   -12.32 dB      8:09 03-Dry Soul
DR10      -0.05 dB   -13.55 dB     14:46 04-Folding Space
--------------------------------------------------------------------------------

Number of tracks:  4
Official DR value: DR10

Samplerate:        96000 Hz
Channels:          2
Bits per sample:   24
Bitrate:           2408 kbps
Codec:             FLAC
================================================================================
No seeders - write personal message to M0p94ok. Any questions - support@pro-jazz.com.
Нет сидеров - пишите в личку M0p94ok. Есть вопросы - support@pro-jazz.com
22:18
67
Нет комментариев. Ваш будет первым!