Вы используете незарегистрированную версию компонента "Вкладки"!

Поиск

1955 Ella Fitzgerald - Lullabies Of Birdland (2019) {RevOla} [24-44.1]

1955 Ella Fitzgerald - Lullabies Of Birdland (2019) {RevOla} [24-44.1]
Стили:
Издатель (лейбл):
Битрейт аудио:
lossless
Доп. инфо:

Формат записи/Источник записи: [TR24][OF]
Издание: Remastered
Год издания/переиздания диска: 1955/2019
Продолжительность: 00:34:28
Наличие сканов в содержимом раздачи: Нет

Контейнер: FLAC (*.flac)
Тип рипа: tracks
Разрядность: 24/44,1
Количество каналов: 2.0

Источник (релизер): Qobuz

Лог проверки качества
foobar2000 1.4.3 / Dynamic Range Meter 1.1.1
log date: 2021-02-27 21:48:20

--------------------------------------------------------------------------------
Analyzed: Ella Fitzgerald / Lullabies Of Birdland (Remastered)
--------------------------------------------------------------------------------

DR         Peak         RMS     Duration Track
--------------------------------------------------------------------------------
DR12      -4.21 dB   -18.87 dB      2:49 01-Lullaby Of Birdland (Remastered)
DR14      -3.24 dB   -19.63 dB      3:12 02-Rough Ridin' (Remastered)
DR12      -6.38 dB   -22.54 dB      2:53 03-Angel Eyes (Remastered)
DR12      -2.85 dB   -19.96 dB      3:04 04-Smooth Sailing (Remastered)
DR14      -5.25 dB   -20.98 dB      3:05 05-Oh, Lady Be Good (Remastered)
DR12      -5.57 dB   -19.96 dB      2:31 06-Later (Remastered)
DR13      -5.77 dB   -22.48 dB      5:11 07-Ella Hums The Blues (FromThe Film "Pete Kelly's Blues") (Remastered)
DR14      -4.74 dB   -20.99 dB      3:13 08-How High The Moon? (Remastered)
DR14      -4.33 dB   -21.97 dB      3:05 09-Basin Street Blues (Remastered)
DR13      -5.37 dB   -20.58 dB      3:00 10-Air Mail Special (Remastered)
DR14      -4.42 dB   -21.39 dB      2:29 11-Flying Home (Remastered)
--------------------------------------------------------------------------------

Number of tracks:  11
Official DR value: DR13

Samplerate:        44100 Hz
Channels:          2
Bits per sample:   24
Bitrate:           1188 kbps
Codec:             FLAC
================================================================================
Any questions - support@pro-jazz.com. Есть вопросы - support@pro-jazz.com
22:13
107
Нет комментариев. Ваш будет первым!