Вы используете незарегистрированную версию компонента "Вкладки"!

Поиск

2017 Katharine McPhee - I Fall in Love Too Easily {BMG} [24-44.1]

2017 Katharine McPhee - I Fall in Love Too Easily {BMG} [24-44.1]
Стили:
Дата издания диска:
17 ноября 2017
Издатель (лейбл):
Битрейт аудио:
lossless
Доп. инфо:

Формат записи/Источник записи: [TR24][OF]
Наличие водяных знаков: Нет
Год издания: 2017
Продолжительность: 00:40:28
Наличие сканов в содержимом раздачи: Только обложка альбома
Контейнер: FLAC (*.flac)
Тип рипа: tracks
Разрядность: 24/44.1
Формат: PCM
Количество каналов: 2.0
Источник (релизер): qobuz.com

Лог проверки качества
foobar2000 1.4.8 / Dynamic Range Meter 1.1.1
log date: 2019-10-29 16:04:58

--------------------------------------------------------------------------------
Analyzed: Katharine McPhee / I Fall in Love Too Easily
--------------------------------------------------------------------------------

DR         Peak         RMS     Duration Track
--------------------------------------------------------------------------------
DR11      -0.02 dB   -13.60 dB      3:56 01-All the Way
DR12      -0.01 dB   -16.59 dB      5:39 02-I'll Be Seeing You
DR12      -0.02 dB   -15.51 dB      5:09 03-Night and Day
DR11       0.00 dB   -14.84 dB      3:52 04-I Fall in Love Too Easily
DR10       0.00 dB   -13.39 dB      3:29 05-Everything Must Change
DR11       0.00 dB   -15.25 dB      2:44 06-I've Grown Accustomed to His Face
DR10      -0.02 dB   -12.68 dB      3:07 07-Sooner or Later (I Always Get My Man)
DR10       0.00 dB   -13.91 dB      4:04 08-Who Can I Turn To
DR11       0.00 dB   -14.57 dB      4:29 09-It Never Entered My Mind
DR10       0.00 dB   -12.46 dB      4:07 10-Blame It on My Youth
--------------------------------------------------------------------------------

Number of tracks:  10
Official DR value: DR11
Samplerate:        44100 Hz
Channels:          2
Bits per sample:   24
Bitrate:           1465 kbps
Codec:             FLAC
================================================================================
Any questions - support@pro-jazz.com. Есть вопросы - support@pro-jazz.com
09:30
145
Нет комментариев. Ваш будет первым!