Поиск

2007 Richie Beirach Trio - Summer Night (2016) {Venus} [DSD64 ISO]

2007 Richie Beirach Trio - Summer Night (2016) {Venus} [DSD64 ISO]
Дата записи диска:
4 сентября - 5 сентября 2007
Место записи:
The Studio, New York City, NY, USA
Издатель (лейбл):
Номер по каталогу:
VHGD-123
Битрейт аудио:
lossless

Треклист:

01. Summer Night  05:03
02. All of You  07:44
03. Solar  05:45
04. Memories of You  05:40
05. All Blues  06:23
06. Siciliano  06:07
07. I Remember You  06:53
08. Impressions Intimas No. 1  05:30
09. Milestones  05:24
10. So What  05:25

Доп. инфо:

Формат записи/Источник записи: [SACD-R][OF]
Наличие водяных знаков: Нет
Год издания/переиздания диска: 2007/2016
Продолжительность: 00:59:15
Наличие сканов в содержимом раздачи: Только обложка альбома

Контейнер: ISO (*.iso)
Тип рипа: image
Разрядность: 64(2,8 MHz/1 Bit)
Формат: DSD
Количество каналов: 2.0

Доп. информация: venusrecords
Источник (релизер): jazzy pic

Лог проверки качества
foobar2000 1.6.4 / Dynamic Range Meter 1.1.1
log date: 2021-03-17 20:39:13

--------------------------------------------------------------------------------
Analyzed: RICHIE BEIRACH TRIO / Summer Night
--------------------------------------------------------------------------------

DR         Peak         RMS     Duration Track
--------------------------------------------------------------------------------
DR7       -4.76 dB   -13.03 dB      4:58 01-Summer Night
DR7       -4.88 dB   -13.83 dB      7:40 02-All of You
DR7       -4.75 dB   -13.68 dB      5:41 03-Solar
DR8       -4.92 dB   -14.83 dB      5:36 04-Memories Of You
DR7       -4.73 dB   -13.00 dB      6:19 05-All Blues
DR7       -4.98 dB   -14.02 dB      6:03 06-Siciliano
DR7       -4.96 dB   -14.65 dB      6:48 07-I Remember You
DR8       -5.21 dB   -15.72 dB      5:25 08-Impressions Intimas No.1
DR7       -4.92 dB   -13.79 dB      5:20 09-Milestones
DR7       -4.66 dB   -13.60 dB      5:26 10-So What
--------------------------------------------------------------------------------

Number of tracks:  10
Official DR value: DR7

Samplerate:        2822400 Hz / PCM Samplerate: 88200 Hz
Channels:          2
Bits per sample:   1
Bitrate:           5645 kbps
Codec:             DSD64
================================================================================
Приватный:
Нет (DHT включён)
Размер:
2.42 Гб (2,595,370,810 байт) » файлов: 5
Участники:
0 раздают, 0 качают (0 участников всего)
Внешние участники:
14 раздают, 5 качают (19 участников всего) [ Обновить ]
No seeders - write personal message to M0p94ok. Any questions - support@pro-jazz.com.
Нет сидеров - пишите в личку M0p94ok. Есть вопросы - support@pro-jazz.com
17:58
41
Нет комментариев. Ваш будет первым!