Поиск

2020 Tsuyoshi Yamamoto Trio - Misty {Venus} [DSD64 ISO]

2020 Tsuyoshi Yamamoto Trio - Misty {Venus} [DSD64 ISO]
Стили:
Дата записи диска:
16 ноября 2019
Место записи:
Yokogama, Japan
Дата издания диска:
19 февраля 2020
Издатель (лейбл):
Номер по каталогу:
VHGD356
Битрейт аудио:
lossless

Треклист:

01. Gentle Blues  10:16
02. Misty  06:10
03. No Problem  08:33
04. Over the Rainbow  06:06
05. Nature Boy  03:39
06. Caravan  04:10
07. You Don't Know Me  04:04
08. Tanabatasama  03:18

Доп. инфо:

Формат записи/Источник записи: [SACD-R][OF]
Наличие водяных знаков: Нет
Год издания диска: 2020
Продолжительность: 00:46:20
Наличие сканов в содержимом раздачи: Только обложка альбома

Контейнер: ISO (*.iso)
Тип рипа: image
Разрядность: 64(2,8 MHz/1 Bit)
Формат: DSD
Количество каналов: 2.0

Доп. информация: venusrecords
Источник (релизер): jazzy pic

Лог проверки качества
foobar2000 1.6.4 / Dynamic Range Meter 1.1.1
log date: 2021-03-16 19:55:04

--------------------------------------------------------------------------------
Analyzed: Tsuyoshi Yamamoto Trio / Misty ~ Live at Jazz Is
--------------------------------------------------------------------------------

DR         Peak         RMS     Duration Track
--------------------------------------------------------------------------------
DR8       -5.62 dB   -15.77 dB     10:16 01-Gentle Blues
DR7       -5.69 dB   -14.98 dB      6:10 02-Misty
DR6       -5.68 dB   -13.52 dB      8:34 03-No Problem
DR13      -5.87 dB   -22.58 dB      6:07 04-Over The Rainbow
DR8       -7.10 dB   -19.86 dB      3:40 05-Nature Boy
DR6       -5.73 dB   -12.91 dB      4:10 06-Caravan
DR7       -5.91 dB   -15.60 dB      4:05 07-You Don't Know Me
DR7       -6.22 dB   -16.42 dB      3:19 08-Tanabatasama
--------------------------------------------------------------------------------

Number of tracks:  8
Official DR value: DR8

Samplerate:        2822400 Hz / PCM Samplerate: 88200 Hz
Channels:          2
Bits per sample:   1
Bitrate:           5645 kbps
Codec:             DSD64
================================================================================
Приватный:
Нет (DHT включён)
Размер:
1.87 Гб (2,004,680,408 байт) » файлов: 5
Участники:
0 раздают, 0 качают (0 участников всего)
Внешние участники:
23 раздают, 7 качают (30 участников всего) [ Обновить ]
No seeders - write personal message to M0p94ok. Any questions - support@pro-jazz.com.
Нет сидеров - пишите в личку M0p94ok. Есть вопросы - support@pro-jazz.com
13:37
74
Нет комментариев. Ваш будет первым!