Вы используете незарегистрированную версию компонента "Вкладки"!

Поиск

2021 Willie Bradley - It's My Time {Willie Bradley Music} [24-44.1]

2021 Willie Bradley - It's My Time {Willie Bradley Music} [24-44.1]
Дата издания диска:
2 июля 2020
Носитель:
WEB
Формат:
PCM
Тип рипа:
tracks
Контейнер:
FLAC (*.flac)
Количество каналов:
2.0
Разрядность/ЧД:
24/44,1
Битрейт аудио:
lossless
Время звучания:
00:49:09
Наличие сканов:
только обложка
Лог проверки качества
foobar2000 1.4.2 / Dynamic Range Meter 1.1.1
log date: 2021-07-03 15:20:26

--------------------------------------------------------------------------------
Analyzed: Willie Bradley / It's My Time
--------------------------------------------------------------------------------

DR         Peak         RMS     Duration Track
--------------------------------------------------------------------------------
DR8       -1.31 dB   -11.09 dB      3:42 01-Life on Top (feat. Greg Manning)
DR7       -1.31 dB    -9.54 dB      3:48 02-It's On Now (feat. Ragan Whiteside)
DR7       -1.31 dB   -10.07 dB      3:39 03-Over the Horizon (feat. Julian Vaughn)
DR6       -1.31 dB    -9.12 dB      4:04 04-All for You (feat. Walter Beasley)
DR6       -1.31 dB    -8.57 dB      4:16 05-Sunny Dayz for Catherine (feat. Kay-Ta Matsuno)
DR7       -1.31 dB    -9.63 dB      4:23 06-It's My Time (feat. James Lloyd)
DR6       -1.31 dB    -9.55 dB      3:53 07-Falling for You (feat. Selina Albright)
DR7       -1.31 dB   -10.10 dB      4:00 08-For Your Love (feat. LaShawn D. Gary)
DR6       -1.31 dB    -9.43 dB      3:42 09-Mystical Moment
DR7       -1.31 dB    -9.58 dB      4:55 10-Next Time Around (feat. Marion Meadows)
DR7       -1.31 dB    -9.39 dB      4:00 11-Brazzetude (feat. Johnny Britt & Rob Zinn)
DR7       -1.31 dB   -10.09 dB      4:48 12-Groove for the Ques
--------------------------------------------------------------------------------

Number of tracks:  12
Official DR value: DR7

Samplerate:        44100 Hz
Channels:          2
Bits per sample:   24
Bitrate:           1687 kbps
Codec:             FLAC
================================================================================
Any questions - support@pro-jazz.com. Есть вопросы - support@pro-jazz.com
11:02
40
Нет комментариев. Ваш будет первым!