Вы используете незарегистрированную версию компонента "Вкладки"!

Поиск

1980 Esperanto - Esperanto (2021) {Favorite} [24-96]

1980 Esperanto - Esperanto (2021) {Favorite} [24-96]
Стили:
Дата переиздания диска:
20 августа 2021
Носитель:
WEB
Формат:
PCM
Тип рипа:
tracks
Контейнер:
FLAC (*.flac)
Количество каналов:
2.0
Разрядность/ЧД:
24/96
Битрейт аудио:
lossless
Время звучания:
00:38:21
Наличие сканов:
только обложка
Лог проверки качества
foobar2000 1.4.2 / Dynamic Range Meter 1.1.1
log date: 2021-07-03 15:04:18

--------------------------------------------------------------------------------
Analyzed: Esperanto / Esperanto
--------------------------------------------------------------------------------

DR         Peak         RMS     Duration Track
--------------------------------------------------------------------------------
DR10      -0.17 dB   -12.13 dB      5:02 01-Cosa Suave
DR11      -0.17 dB   -12.60 dB      4:23 02-Hermoso Dia
DR11      -0.17 dB   -12.58 dB      7:07 03-Alegria
DR11      -0.17 dB   -12.93 dB      2:56 04-Vereda Tropical
DR9       -0.17 dB   -10.45 dB      4:31 05-Caucaguita
DR11      -0.17 dB   -13.58 dB      8:51 06-Angela La EspaГ±ola
DR11      -0.17 dB   -12.77 dB      4:44 07-Ticket To Ride
DR11      -0.68 dB   -16.14 dB      0:49 08-Cancion Para Un Osito De Peluche
--------------------------------------------------------------------------------

Number of tracks:  8
Official DR value: DR11

Samplerate:        96000 Hz
Channels:          2
Bits per sample:   24
Bitrate:           2657 kbps
Codec:             FLAC
================================================================================
Any questions - support@pro-jazz.com. Есть вопросы - support@pro-jazz.com
00:33
52
Нет комментариев. Ваш будет первым!