Вы используете незарегистрированную версию компонента "Вкладки"!

Поиск

2021 Pasquale Grasso - Solo Ballads {Sony Masterworks} [24-96]

2021 Pasquale Grasso - Solo Ballads {Sony Masterworks} [24-96]
Дата издания диска:
8 апреля 2021
Издатель (лейбл):
Носитель:
WEB
Формат:
PCM
Тип рипа:
tracks
Контейнер:
FLAC (*.flac)
Количество каналов:
2.0
Разрядность/ЧД:
24/96
Битрейт аудио:
lossless
Время звучания:
00:40:13
Наличие сканов:
только обложка
Доп. инфо:

Яркая классическая техника Паскуале Грассо, джазовая фразировка, ритмы бибопа и ловкие лады выделили его как прославленного виртуоза 21 века, кульминацией которого стало его последнее произведение «Сольные баллады».

Грассо снова пополняет свой репертуар пятью свежими треками, кульминацией которых стало расширенное издание его EP Solo Ballads, Vol. 1. Десять объединенных песен представляют собой первую часть возможной серии альбомов из трех частей, которые выйдут в 2021–2022 годах.

«Я выбрал песни, которые исполнял всю свою жизнь. Это мои любимые баллады, и они напоминают мне о моем детстве. У меня есть личная история, связанная с каждым из них, - говорит Грассо. Пятью ранее не издававшимися треками Грассо представляет Solo Ballads с интимной интерпретацией стандартной песни «When I Fall In Love». Его ярко выраженная игра на ощупь ставит арпеджио на передний план, прежде чем нести мгновенно узнаваемую мелодию - популяризированную Натали Коул и Нэтом Кингом Коулом - с не чем иным, как его гитарой.

«Я всегда был романтиком, - улыбается он. «Я южный итальянец и вырос, наблюдая за своими родителями, которые были влюблены более сорока лет. Я попытался добавить в мелодию больше классической гитары. Песня прекрасна, и она напоминает мне о том, что значит быть влюбленным».

https://www.highresaudio.com/en/album/view/hr87d4/pasquale-grasso-solo-ballads

Лог проверки качества
foobar2000 1.6.2 / Dynamic Range Meter 1.1.1
log date: 2021-11-17 22:20:10

--------------------------------------------------------------------------------
Analyzed: Pasquale Grasso / Solo Ballads
--------------------------------------------------------------------------------

DR         Peak         RMS     Duration Track
--------------------------------------------------------------------------------
DR11      -1.12 dB   -14.93 dB      3:55 01-Embraceable You
DR11      -1.12 dB   -14.56 dB      4:23 02-Over the Rainbow
DR11      -1.12 dB   -14.52 dB      4:24 03-These Foolish Things
DR9       -1.12 dB   -12.88 dB      4:10 04-Smoke Gets in Your Eyes
DR10      -1.12 dB   -13.71 dB      4:12 05-Someone to Watch Over Me
DR12      -1.12 dB   -15.93 dB      4:28 06-Darn That Dream
DR11      -1.12 dB   -14.39 dB      4:07 07-Body and Soul
DR9       -1.12 dB   -13.04 dB      4:58 08-Don't Blame Me
DR11      -2.07 dB   -18.41 dB      2:28 09-When I Fall in Love
DR10      -1.12 dB   -14.13 dB      3:14 10-Ev'ry Time We Say Goodbye
--------------------------------------------------------------------------------

Number of tracks:  10
Official DR value: DR11

Samplerate:        96000 Hz
Channels:          2
Bits per sample:   24
Bitrate:           2253 kbps
Codec:             FLAC
================================================================================
Any questions - support@pro-jazz.com. Есть вопросы - support@pro-jazz.com
23:50
54
Нет комментариев. Ваш будет первым!