Вы используете незарегистрированную версию компонента "Вкладки"!

Поиск

1960 Cannonball Adderley Quintet - Them Dirty Blues (2021) {Music Manager} [24-48]

1960 Cannonball Adderley Quintet - Them Dirty Blues (2021) {Music Manager} [24-48]
Стили:
Дата записи диска:
1 февраля - 29 марта 1960
Место записи:
Reeves Sound Studios, New York City, NY, USA; Ter Mar Studios, Chicago, Illinois, USA; Capitol Studios, Hollywood, California, USA
Дата переиздания диска:
22 июня 2021
Носитель:
WEB
Формат:
PCM
Тип рипа:
tracks
Контейнер:
FLAC (*.flac)
Количество каналов:
2.0
Разрядность/ЧД:
24/48
Битрейт аудио:
lossless
Время звучания:
00:39:50
Наличие сканов:
только обложка
Лог проверки качества
foobar2000 1.6.2 / Dynamic Range Meter 1.1.1
log date: 2021-06-27 18:08:54

--------------------------------------------------------------------------------
Analyzed: Cannonball Adderley Quintet / Them Dirty Blues
--------------------------------------------------------------------------------

DR         Peak         RMS     Duration Track
--------------------------------------------------------------------------------
DR11      -0.04 dB   -14.62 dB      5:08 01-Work Song
DR12      -0.07 dB   -14.60 dB      5:31 02-Dat Dere
DR14      -0.02 dB   -17.17 dB      4:22 03-Easy Living
DR12      -0.03 dB   -14.36 dB      4:42 04-Del Sasser
DR12      -0.03 dB   -14.82 dB      7:17 05-Jeannine
DR13      -0.01 dB   -16.88 dB      5:37 06-Soon
DR13      -0.27 dB   -16.76 dB      7:17 07-Them Dirty Blues
--------------------------------------------------------------------------------

Number of tracks:  7
Official DR value: DR12

Samplerate:        48000 Hz
Channels:          2
Bits per sample:   24
Bitrate:           1238 kbps
Codec:             FLAC
================================================================================
Any questions - support@pro-jazz.com. Есть вопросы - support@pro-jazz.com
12:39
109
Нет комментариев. Ваш будет первым!