Вы используете незарегистрированную версию компонента "Вкладки"!

Поиск

2020 Rafiq Bhatia - Standards Vol. 1 {Anti, Epitaph} [24-96]

2020 Rafiq Bhatia - Standards Vol. 1 {Anti, Epitaph} [24-96]
Место записи:
The Bunker Studio, Red Bull Studios, New York, USA
Дата издания диска:
31 января 2020
Носитель:
WEB
Формат:
PCM
Тип рипа:
tracks
Контейнер:
FLAC (*.flac)
Количество каналов:
2.0
Разрядность/ЧД:
24/96
Битрейт аудио:
lossless
Время звучания:
00:16:34
Наличие сканов:
только обложка
Лог проверки качества
foobar2000 1.6.2 / Dynamic Range Meter 1.1.1
log date: 2021-11-18 12:21:49

--------------------------------------------------------------------------------
Analyzed: Rafiq Bhatia / Standards Vol. 1
--------------------------------------------------------------------------------

DR         Peak         RMS     Duration Track
--------------------------------------------------------------------------------
DR5       -0.23 dB    -8.63 dB      3:47 01-In A Sentimental Mood
DR6       -0.20 dB   -10.75 dB      4:11 02-The First Time Ever I Saw Your Face
DR5       -0.20 dB    -9.70 dB      3:56 03-Lonely Woman
DR12      -0.20 dB   -17.85 dB      4:42 04-The Single Petal Of A Rose
--------------------------------------------------------------------------------

Number of tracks:  4
Official DR value: DR7

Samplerate:        96000 Hz
Channels:          2
Bits per sample:   24
Bitrate:           2503 kbps
Codec:             FLAC
================================================================================
Any questions - support@pro-jazz.com. Есть вопросы - support@pro-jazz.com
13:30
47
Нет комментариев. Ваш будет первым!