Вы используете незарегистрированную версию компонента "Вкладки"!

Поиск

1962 Chuck Mangione Quintet - Recuerdo (2021) {Music Manager} [24-48]

1962 Chuck Mangione Quintet - Recuerdo (2021) {Music Manager} [24-48]
Стили:
Дата записи диска:
31 июля 1962
Место записи:
Plaza Sound Studios, New York City, NY, USA
Носитель:
WEB
Формат:
PCM
Тип рипа:
tracks
Контейнер:
FLAC (*.flac)
Количество каналов:
2.0
Разрядность/ЧД:
24/48
Битрейт аудио:
lossless
Время звучания:
00:39:30
Наличие сканов:
только обложка
Лог проверки качества
foobar2000 1.4.6 / Dynamic Range Meter 1.1.1
log date: 2021-07-01 21:37:32

--------------------------------------------------------------------------------
Analyzed: Chuck Mangione Quintet / Recuerdo
--------------------------------------------------------------------------------

DR         Peak         RMS     Duration Track
--------------------------------------------------------------------------------
DR13       0.00 dB   -16.92 dB      5:34 01-Recuerdo
DR14       0.00 dB   -18.66 dB      4:25 02-Big Foot
DR15       0.00 dB   -20.80 dB      6:24 03-I Had the Craziest Dream
DR15       0.00 dB   -19.83 dB      4:19 04-Solar
DR14       0.00 dB   -19.00 dB      4:40 05-Blues for Saandar
DR14       0.00 dB   -18.42 dB      6:57 06-If Ever I Would Leave You
DR14       0.00 dB   -19.04 dB      7:13 07-The Little Prince
--------------------------------------------------------------------------------

Number of tracks:  7
Official DR value: DR14

Samplerate:        48000 Hz
Channels:          2
Bits per sample:   24
Bitrate:           1223 kbps
Codec:             FLAC
================================================================================
Any questions - support@pro-jazz.com. Есть вопросы - support@pro-jazz.com
17:48
53
Нет комментариев. Ваш будет первым!