Вы используете незарегистрированную версию компонента "Вкладки"!

Поиск

2010 Samy Thiébault - Upanishad Experiences {Gaya Music Production} [24-44.1]

2010 Samy Thiébault - Upanishad Experiences {Gaya Music Production} [24-44.1]
Стили:
Дата издания диска:
3 ноября 2010
Номер по каталогу:
STQCD003
Носитель:
WEB
Формат:
PCM
Тип рипа:
tracks
Контейнер:
FLAC (*.flac)
Количество каналов:
2.0
Разрядность/ЧД:
24/44,1
Битрейт аудио:
lossless
Время звучания:
00:49:40
Наличие сканов:
буклет pdf
Лог проверки качества
foobar2000 1.6.2 / Dynamic Range Meter 1.1.1
log date: 2021-11-18 20:56:38

--------------------------------------------------------------------------------
Analyzed: Samy Thiébault / Upanishad Experiences
--------------------------------------------------------------------------------

DR         Peak         RMS     Duration Track
--------------------------------------------------------------------------------
DR12      -0.01 dB   -14.62 dB      6:21 01-Troisième mue
DR12      -0.55 dB   -15.08 dB      1:12 02-Troisième mue (Final)
DR11      -0.63 dB   -15.39 dB      2:08 03-L'albatros (Introduction)
DR12      -0.56 dB   -15.75 dB      5:59 04-L'albatros
DR10      -1.57 dB   -18.10 dB      1:03 05-Puis la nuit (Prélude)
DR13      -0.37 dB   -16.40 dB      3:28 06-Puis la nuit
DR10      -0.39 dB   -13.89 dB      1:18 07-Puis la nuit (Interlude)
DR12      -1.37 dB   -17.76 dB      1:13 08-Puis la nuit (Final)
DR12      -0.50 dB   -16.73 dB      6:42 09-Danses d'astres
DR11      -1.81 dB   -17.11 dB      0:58 10-Mes roses (Introduction)
DR12      -0.19 dB   -15.95 dB      5:55 11-Mes roses
DR13      -0.52 dB   -15.43 dB      8:23 12-Colombe, serpent et cochon (Live Version)
DR12      -0.60 dB   -15.24 dB      5:00 13-Untitled 02
--------------------------------------------------------------------------------

Number of tracks:  13
Official DR value: DR12

Samplerate:        44100 Hz
Channels:          2
Bits per sample:   24
Bitrate:           882 kbps
Codec:             FLAC
================================================================================
Any questions - support@pro-jazz.com. Есть вопросы - support@pro-jazz.com
22:18
74
Нет комментариев. Ваш будет первым!