Вы используете незарегистрированную версию компонента "Вкладки"!

Поиск

1958 Art Blakey & The Jazz Messengers - Au Club St Germain, vol.1 (2021) {Music Manager} [24-48]

1958 Art Blakey & The Jazz Messengers - Au Club St Germain, vol.1 (2021) {Music Manager} [24-48]
Стили:
Дата переиздания диска:
22 июня 2021
Носитель:
WEB
Формат:
PCM
Тип рипа:
tracks
Контейнер:
FLAC (*.flac)
Количество каналов:
2.0
Разрядность/ЧД:
24/48
Битрейт аудио:
lossless
Время звучания:
00:39:34
Наличие сканов:
только обложка
Лог проверки качества
foobar2000 1.4.6 / Dynamic Range Meter 1.1.1
log date: 2021-07-01 21:33:54

--------------------------------------------------------------------------------
Analyzed: Art Blakey / Au Club St Germain
--------------------------------------------------------------------------------

DR         Peak         RMS     Duration Track
--------------------------------------------------------------------------------
DR9        0.00 dB   -10.69 dB     15:54 01-Politely (Live)
DR8       -0.10 dB   -10.15 dB      7:20 02-Whisper Not (Live)
DR9        0.00 dB   -11.18 dB     13:46 03-Now's the Time (Live)
DR7       -0.12 dB    -9.26 dB      8:40 04-The First Theme (Live)
--------------------------------------------------------------------------------

Number of tracks:  4
Official DR value: DR8

Samplerate:        48000 Hz
Channels:          2
Bits per sample:   24
Bitrate:           1196 kbps
Codec:             FLAC
================================================================================
Any questions - support@pro-jazz.com. Есть вопросы - support@pro-jazz.com
11:50
54
Нет комментариев. Ваш будет первым!