Поиск

2021 Tommy Emmanuel - Live from the Balboa Theatre {CGP Sounds} [24-44.1]

2021 Tommy Emmanuel - Live from the Balboa Theatre {CGP Sounds} [24-44.1]
Битрейт аудио:
lossless

Треклист:

01. Guitar Boogie (Live) (7:03)
02. Locomotivation (Live) (3:23)
03. Haba Na Haba (feat. Pam Rose, Anthony Snape, Frank Vignola & Vinny Raniolo) (Live) (4:54)
04. My Life (feat. Pam Rose) (Live) (4:22)
05. The Trails (Live) (5:28)
06. Everlasting (feat. Anthony Snape) (Live) (2:42)
07. Frequency (feat. Anthony Snape) (Live) (3:57)
08. My Beloved (feat. Pam Rose) (Live) (5:45)
09. I'll Still Be Loving You (feat. Pam Rose & Anthony Snape) (Live) (5:09)
10. Avalon (feat. Frank Vignola & Vinny Raniolo) (Live) (2:11)
11. How High the Moon (feat. Frank Vignola & Vinny Raniolo) (Live) (3:44)
12. Hungarian Dance No. 5 (feat. Frank Vignola & Vinny Raniolo) (Live) (2:59)
13. Smokey Mountain Lullaby (Live) (3:33)
14. Nine Pound Hammer (Live) (5:13)
15. The Digger's Waltz (Live) (3:26)
16. Moon River (Live) (4:25)
17. What a Wonderful World (feat. Frank Vignola & Vinny Raniolo) (Live) (3:33)

Доп. инфо:

Формат записи/Источник записи: [TR24][OF]
Наличие водяных знаков: Нет
Год издания: 2021
Издатель (лейбл): CGP Sounds
Продолжительность: 01:11:38
Наличие сканов в содержимом раздачи: Только обложка альбома
Контейнер: FLAC (*.flac)
Тип рипа: tracks
Разрядность: 24/44.1
Формат: PCM
Количество каналов: 2.0
Источник (релизер): highresaudio.com

Лог проверки качества
foobar2000 1.4.8 / Dynamic Range Meter 1.1.1
log date: 2021-02-13 11:01:10

--------------------------------------------------------------------------------
Analyzed: Tommy Emmanuel / Live from the Balboa Theatre
--------------------------------------------------------------------------------

DR         Peak         RMS     Duration Track
--------------------------------------------------------------------------------
DR8       -1.10 dB   -11.70 dB      7:03 01-Guitar Boogie  (Live)
DR8       -1.17 dB   -11.34 dB      3:23 02-Locomotivation  (Live)
DR6       -1.14 dB    -9.28 dB      4:54 03-Haba Na Haba (feat. Pam Rose, Anthony Snape, Frank Vignola & Vinny Raniolo)  (Live)
DR7       -1.23 dB    -9.96 dB      4:22 04-My Life (feat. Pam Rose)  (Live)
DR8       -1.10 dB   -13.80 dB      5:28 05-The Trails  (Live)
DR12      -1.26 dB   -16.01 dB      2:42 06-Everlasting (feat. Anthony Snape)  (Live)
DR8       -1.12 dB   -11.20 dB      3:57 07-Frequency (feat. Anthony Snape)  (Live)
DR8       -1.25 dB   -13.18 dB      5:45 08-My Beloved (feat. Pam Rose)  (Live)
DR7       -1.17 dB   -11.08 dB      5:09 09-I'll Still Be Loving You (feat. Pam Rose & Anthony Snape)  (Live)
DR7       -1.09 dB    -9.68 dB      2:11 10-Avalon (feat. Frank Vignola & Vinny Raniolo)  (Live)
DR8       -0.98 dB   -10.54 dB      3:44 11-How High the Moon (feat. Frank Vignola & Vinny Raniolo)  (Live)
DR8       -1.17 dB   -10.70 dB      2:59 12-Hungarian Dance No. 5 (feat. Frank Vignola & Vinny Raniolo)  (Live)
DR11      -1.26 dB   -14.46 dB      3:33 13-Smokey Mountain Lullaby  (Live)
DR9       -1.13 dB   -12.04 dB      5:13 14-Nine Pound Hammer  (Live)
DR11      -1.27 dB   -14.49 dB      3:26 15-The Digger's Waltz  (Live)
DR11      -1.28 dB   -14.94 dB      4:25 16-Moon River  (Live)
DR9       -1.22 dB   -12.53 dB      3:33 17-What a Wonderful World (feat. Frank Vignola & Vinny Raniolo)  (Live)
--------------------------------------------------------------------------------

Number of tracks:  17
Official DR value: DR9
Samplerate:        44100 Hz
Channels:          2
Bits per sample:   24
Bitrate:           1441 kbps
Codec:             FLAC
================================================================================
Приватный:
Нет (DHT включён)
Размер:
778.88 Мб (816,720,096 байт) » файлов: 19
Участники:
14 раздают, 0 качают (14 участников всего)
Внешние участники:
9 раздают, 3 качают (12 участников всего) [ Обновить ]
No seeders - write personal message to M0p94ok. Нет сидеров - пишите в личку M0p94ok.
11:45
87
Нет комментариев. Ваш будет первым!