Поиск

2019 Tobias Meinhart - Berlin People {Sunnyside} [24-44.1]

2019 Tobias Meinhart - Berlin People {Sunnyside} [24-44.1]
Место записи:
Loft Cologne, Köln, Germany; Hansa Tonstudios, Kreuzberg, Berlin, Germany
Издатель (лейбл):
Номер по каталогу:
SSC 1541
Носитель:
WEB
Формат:
PCM
Тип рипа:
tracks
Контейнер:
FLAC (*.flac)
Количество каналов:
2.0
Разрядность/ЧД:
24/44,1
Битрейт аудио:
lossless
Время звучания:
01:02:15
Наличие сканов:
только обложка
Страна-производитель диска (релиза):
Germany
Релизёр (источник):
M0p94ok
Лог проверки качества
foobar2000 1.3.16 / Dynamic Range Meter 1.1.1
log date: 2019-06-05 18:07:44

--------------------------------------------------------------------------------
Analyzed: Tobias Meinhart / Berlin People
--------------------------------------------------------------------------------

DR         Peak         RMS     Duration Track
--------------------------------------------------------------------------------
DR7       -0.34 dB    -8.91 dB      8:21 01-Mount Meru
DR11      -0.51 dB   -13.57 dB      7:48 02-Früher War Alles Besser
DR7       -0.35 dB    -9.06 dB      7:21 03-It's Not So Easy
DR7       -0.35 dB    -9.51 dB      7:38 04-Malala
DR9       -0.53 dB   -12.48 dB      4:00 05-Be Free
DR8       -0.35 dB   -10.08 dB      7:54 06-Serenity
DR6       -0.35 dB    -9.22 dB      7:24 07-Childhood
DR8       -0.28 dB    -9.56 dB      6:11 08-Berlin People
DR9       -0.30 dB   -11.19 dB      5:39 09-Alfred
--------------------------------------------------------------------------------

Number of tracks:  9
Official DR value: DR8

Samplerate:        44100 Hz
Channels:          2
Bits per sample:   24
Bitrate:           1516 kbps
Codec:             FLAC
================================================================================
No seeders - write personal message to M0p94ok. Any questions - support@pro-jazz.com.
Нет сидеров - пишите в личку M0p94ok. Есть вопросы - support@pro-jazz.com
13:18
141
Нет комментариев. Ваш будет первым!