Поиск

2020 Laura Fernandez - Okay, Alright {Sonic Peach Music} [24-96]

2020 Laura Fernandez - Okay, Alright {Sonic Peach Music} [24-96]
Стили:
Битрейт аудио:
lossless
Доп. инфо:

Формат записи/Источник записи: [TR24][OF]
Год издания/переиздания диска: 2020
Издатель (лейбл): Sonic Peach Music
Продолжительность: 00:49:04
Наличие сканов в содержимом раздачи: Нет

Контейнер: FLAC (*.flac)
Тип рипа: tracks
Разрядность: 24/96
Количество каналов: 2.0

Источник (релизер): PROSTUDIOMASTERS

Лог проверки качества
foobar2000 1.4.3 / Dynamic Range Meter 1.1.1
log date: 2021-02-12 23:33:30

--------------------------------------------------------------------------------
Analyzed: Laura Fernandez / Okay, Alright
--------------------------------------------------------------------------------

DR         Peak         RMS     Duration Track
--------------------------------------------------------------------------------
DR7       -0.05 dB    -9.29 dB      3:43 01-Breathe Life
DR8       -0.05 dB    -9.62 dB      3:13 02-Hilton Head
DR7       -0.05 dB    -9.46 dB      4:43 03-Nothing Has Changed
DR7       -0.05 dB    -8.09 dB      3:18 04-Slip Away
DR8       -0.05 dB    -9.91 dB      4:10 05-Bare Trees
DR8       -0.05 dB    -9.60 dB      2:58 06-Starry Night
DR6       -0.05 dB    -8.01 dB      3:37 07-Okay, Alright
DR7       -0.05 dB    -9.18 dB      3:24 08-Pearls
DR7       -0.05 dB    -9.21 dB      3:41 09-Come Down in Time
DR8       -0.05 dB    -9.11 dB      3:54 10-Thirty Year Winter / So Cold
DR7       -0.05 dB    -9.29 dB      4:46 11-To Stay
DR7       -0.05 dB    -8.71 dB      4:19 12-The Killer
DR7       -0.05 dB    -8.14 dB      3:12 13-Imagination
--------------------------------------------------------------------------------

Number of tracks:  13
Official DR value: DR7

Samplerate:        96000 Hz
Channels:          2
Bits per sample:   24
Bitrate:           2755 kbps
Codec:             FLAC
================================================================================
No seeders - write personal message to M0p94ok. Any questions - support@pro-jazz.com.
Нет сидеров - пишите в личку M0p94ok. Есть вопросы - support@pro-jazz.com
15:46
257
Нет комментариев. Ваш будет первым!