Поиск

2015 VA - Venus The Amazing Super Audio CD Sampler Vol.11 {Venus} [DSD64]

2015 VA - Venus The Amazing Super Audio CD Sampler Vol.11 {Venus} [DSD64]
Стили:
Издатель (лейбл):
Номер по каталогу:
VHGD-121
Битрейт аудио:
lossless
Треклист:

01. Dear Old Stockholm - Eric Alexander
02. It's All Right With Me - Scott Hamilton
03. Lucky To Be Me - Ken Peplowki
04. Valse Hot - Barney Wilen
05. Hush-A-Bye - Nicolas Montier
06. Freedom Jazz Dance - Eddie Harris
07. I Want To Talk About You - Pharoah Sanders
08. Gigi - Archie Shepp
09. Autumn Leaves - Carmen Leggio
10. My Cherie Amour - Brandon Fields
11. Gentle Rain - George Garzone
12. Delilah - Joel Flarm
13. Blue Moon - Bob Kindred
14. Stardust - Gianni Basso
15. Satin Doll - Dewey Redman

Доп. инфо:

Формат записи/Источник записи: [SACD-R][OF]
Наличие водяных знаков: Нет
Издание: Sampler
Год издания диска: 2015
Продолжительность: 01:28:49
Наличие сканов в содержимом раздачи: Только обложка альбома

Контейнер: ISO (*.iso)
Тип рипа: image
Разрядность: 64(2,8 MHz/1 Bit)
Формат: DSD
Количество каналов: 2.0

Источник: venusrecords

Лог проверки качества
foobar2000 1.6.4 / Замер динамического диапазона (DR) 1.1.1
Дата отчёта:  2021-02-13 21:01:45

--------------------------------------------------------------------------------
Анализ:   Various Artists / VENUS THE AMAZING SUPER AUDIO CD SAMPLER VOL.11
--------------------------------------------------------------------------------

DR         Пики         RMS           Продолжительность трека
--------------------------------------------------------------------------------
DR7       -4.50 дБ   -12.30 дБ      5:42 01-Dear Old Stockholm
DR7       -4.56 дБ   -13.05 дБ      7:50 02-It's All Right With Me
DR6       -4.96 дБ   -13.35 дБ      7:00 03-Lucky To Be Me
DR6       -4.67 дБ   -11.93 дБ      5:09 04-Valse Hot
DR10      -4.81 дБ   -16.43 дБ      4:37 05-Hush-A-Bye
DR6       -4.65 дБ   -11.27 дБ      5:28 06-Freedom Jazz Dance
DR6       -4.84 дБ   -12.73 дБ      7:14 07-I Want To Talk About You
DR6       -4.52 дБ   -13.17 дБ      4:06 08-Gigi
DR8       -4.82 дБ   -13.85 дБ      5:54 09-Autumn Leaves
DR8       -4.80 дБ   -14.23 дБ      5:15 10-My Cherie Amour
DR6       -4.98 дБ   -12.51 дБ      5:52 11-Gentle Rain
DR7       -4.84 дБ   -13.23 дБ      4:50 12-Delilah
DR6       -4.73 дБ   -12.67 дБ      7:27 13-Blue Moon
DR6       -5.08 дБ   -12.84 дБ      4:03 14-Stardust
DR7       -4.61 дБ   -13.47 дБ      8:23 15-Satin Doll
--------------------------------------------------------------------------------

Количество треков: 15
Реальные значения DR: DR7

Частота:  2822400 Гц / Частота PCM: 352800 Гц
Каналов:  2
Разрядность:   1
Битрейт:  5645 кбит/с
Кодек:   DSD64
================================================================================
Приватный:
Нет (DHT включён)
Размер:
3.56 Гб (3,821,594,137 байт) » файлов: 4
Участники:
0 раздают, 0 качают (0 участников всего)
Внешние участники:
14 раздают, 5 качают (19 участников всего) [ Обновить ]
No seeders - write personal message to M0p94ok. Any questions - support@pro-jazz.com.
Нет сидеров - пишите в личку M0p94ok. Есть вопросы - support@pro-jazz.com
18:42
126
Нет комментариев. Ваш будет первым!