Поиск

2018 VA - Venus The Amazing Super Audio CD Sampler Vol.24 {Venus} [DSD64]

2018 VA - Venus The Amazing Super Audio CD Sampler Vol.24 {Venus} [DSD64]
Стили:
Издатель (лейбл):
Номер по каталогу:
VHGD-315
Битрейт аудио:
lossless
Доп. инфо:

Формат записи/Источник записи: [SACD-R][OF]
Наличие водяных знаков: Нет
Издание: Sampler
Год издания диска: 2018
Продолжительность: 01:21:06
Наличие сканов в содержимом раздачи: Только обложка альбома

Контейнер: ISO (*.iso)
Тип рипа: image
Разрядность: 64(2,8 MHz/1 Bit)
Формат: DSD
Количество каналов: 2.0

Источник (релизер): venusrecords

Лог проверки качества
foobar2000 1.6.4 / Замер динамического диапазона (DR) 1.1.1
Дата отчёта:  2021-02-14 15:09:22

--------------------------------------------------------------------------------
Анализ:   Various Artists / VENUS THE AMAZING SUPER AUDIO CD SAMPLER VOL.24
--------------------------------------------------------------------------------

DR         Пики         RMS           Продолжительность трека
--------------------------------------------------------------------------------
DR8       -5.03 дБ   -14.89 дБ      5:52 01-Beautiful Love
DR9       -4.96 дБ   -14.84 дБ      5:16 02-My Cherie Amour
DR6       -5.28 дБ   -13.06 дБ      5:59 03-Summertime
DR6       -4.48 дБ   -12.22 дБ      4:13 04-The Nobleman's Journey
DR7       -4.42 дБ   -14.27 дБ      3:56 05-Just One Of Those Things
DR9       -5.38 дБ   -17.13 дБ      5:12 06-My Foolish Heart
DR6       -4.84 дБ   -12.99 дБ      5:48 07-Somewhere Over The Rainbow
DR8       -4.67 дБ   -13.71 дБ      4:36 08-In Between The Heartaches
DR7       -5.32 дБ   -13.50 дБ      8:39 09-Marta
DR6       -5.62 дБ   -12.50 дБ      6:26 10-Edward Lee
DR8       -4.63 дБ   -16.26 дБ      6:14 11-My Lord And Master
DR6       -4.75 дБ   -12.20 дБ      5:08 12-Get Out Of Town
DR10      -4.60 дБ   -16.67 дБ      4:15 13-Autumn Leaves
DR6       -6.13 дБ   -13.43 дБ      4:57 14-Walkin' My Baby Back Home
DR7       -4.95 дБ   -13.82 дБ      4:36 15-So In Love
--------------------------------------------------------------------------------

Количество треков: 15
Реальные значения DR: DR7

Частота:  2822400 Гц / Частота PCM: 88200 Гц
Каналов:  2
Разрядность:   1
Битрейт:  5645 кбит/с
Кодек:   DSD64
================================================================================
No seeders - write personal message to M0p94ok. Any questions - support@pro-jazz.com.
Нет сидеров - пишите в личку M0p94ok. Есть вопросы - support@pro-jazz.com
22:11
109
Нет комментариев. Ваш будет первым!