Вы используете незарегистрированную версию компонента "Вкладки"!

Поиск

2021 Sammy Davis, Jr. - Simply ... Mister Wonderful! {Jube Legends} [24-48]

2021 Sammy Davis, Jr. - Simply ... Mister Wonderful! {Jube Legends} [24-48]
Стили:
Носитель:
WEB
Формат:
PCM
Тип рипа:
tracks
Контейнер:
FLAC (*.flac)
Количество каналов:
2.0
Разрядность/ЧД:
24/48
Битрейт аудио:
lossless
Время звучания:
01:26:44
Наличие сканов:
только обложка
Страна-производитель диска (релиза):
USA
Релизёр (источник):
M0p94ok
Лог проверки качества
foobar2000 1.6.2 / Dynamic Range Meter 1.1.1
log date: 2021-04-15 18:10:54

--------------------------------------------------------------------------------
Analyzed: Sammy Davis, Jr. / Simply ... Mister Wonderful! (The 2020 Remasters)
--------------------------------------------------------------------------------

DR         Peak         RMS     Duration Track
--------------------------------------------------------------------------------
DR12      -0.14 dB   -14.86 dB      3:22 01-Jubilee: Begin the Biguine
DR9       -0.14 dB   -11.33 dB      3:19 02-The Sound of Music: Climb Every Mountain
DR10      -0.14 dB   -10.99 dB      2:26 03-The Boys from Syracuse: I Fell In Love With Love
DR11      -0.14 dB   -14.45 dB      2:29 04-I a Persian Market
DR11      -0.14 dB   -13.25 dB      2:08 05-The Lonsesome Road
DR11      -0.14 dB   -13.57 dB      2:28 06-Perdido
DR12      -0.14 dB   -16.47 dB      2:48 07-Knickerbocker Holiday: September Song
DR11      -0.14 dB   -13.89 dB      2:51 08-The Gypsy In My Soul
DR9       -0.14 dB   -10.81 dB      2:59 09-Mister Wonderful: Too Close for Comfort
DR11      -0.14 dB   -13.50 dB      2:53 10-Mister Wonderful: Without You
DR10      -0.14 dB   -12.97 dB      3:31 11-Jumbo: Jumbo: My Roamnce
DR12      -2.39 dB   -16.68 dB      2:22 12-Mister Wonderful: The Song of Jacques D'Iraque
DR10      -0.14 dB   -13.64 dB      2:39 13-Comes Love
DR10      -0.14 dB   -12.92 dB      2:56 14-Whoopee: Love Me or Leave Me
DR11      -0.14 dB   -13.83 dB      2:50 15-Going Hollywood: Temptation
DR11      -0.14 dB   -13.37 dB      2:44 16-Bye Bye Birdie: Got a Lot of Livin' to Do
DR12      -0.14 dB   -13.94 dB      3:22 17-Don't Get Around Much More
DR12      -0.14 dB   -14.07 dB      2:41 18-Will You Still Be Mine
DR9       -0.14 dB   -11.83 dB      4:27 19-Lost In the Stars
DR12      -0.14 dB   -14.52 dB      2:56 20-By Myself
DR12      -0.14 dB   -14.22 dB      2:34 21-Some Like It Hot: The Lady's In Love With You
DR10      -0.14 dB   -12.29 dB      2:44 22-West Side Story: Something's Comin'
DR11      -0.14 dB   -14.39 dB      2:42 23-Don't Cha Go Way Mad
DR10      -0.14 dB   -12.63 dB      2:42 24-Finian's Rainbow: The Great "come-and-get-It-day"
DR8       -0.14 dB   -10.69 dB      3:19 25-The King and I: We Kiss In a Shadow
DR12      -0.14 dB   -14.65 dB      2:41 26-Oh Shoo Be Doo Be
DR11      -0.14 dB   -13.29 dB      2:35 27-South Pacific: There's Nothing Like a Dame
DR9       -0.14 dB   -11.68 dB      3:57 28-Carousel: If I Loved You
DR11      -1.13 dB   -14.78 dB      3:00 29-Beat Me Daddy Eight to the Bar
DR10      -0.14 dB   -12.37 dB      2:34 30-Happy Ending
--------------------------------------------------------------------------------

Number of tracks:  30
Official DR value: DR11

Samplerate:        48000 Hz
Channels:          2
Bits per sample:   24
Bitrate:           1604 kbps
Codec:             FLAC
================================================================================
Any questions - support@pro-jazz.com. Есть вопросы - support@pro-jazz.com
18:22
145
Нет комментариев. Ваш будет первым!