Поиск

2017 Daria Toffali - Caminhos Cruzados {Venus} [DSD64]

2017 Daria Toffali - Caminhos Cruzados {Venus} [DSD64]
Стили:
Издатель (лейбл):
Номер по каталогу:
VHGD-235
Битрейт аудио:
lossless
Доп. инфо:

Формат записи/Источник записи: [SACD-R][OF]
Наличие водяных знаков: Нет
Год издания/переиздания диска: 2017
Продолжительность: 00:48:35
Наличие сканов в содержимом раздачи: Только обложка альбома

Контейнер: ISO (*.iso)
Тип рипа: image
Разрядность: 64(2,8 MHz/1 Bit)
Формат: DSD
Количество каналов: 2.0

Доп. информация: venusrecords
Источник (релизер): jazzy pic

Лог проверки качества
foobar2000 1.6.4 / Замер динамического диапазона (DR) 1.1.1
Дата отчёта:  2021-02-13 09:08:26

--------------------------------------------------------------------------------
Анализ:   CAMINHOS CRUZADOS / Daria Toffali
--------------------------------------------------------------------------------

DR         Пики         RMS           Продолжительность трека
--------------------------------------------------------------------------------
DR8       -5.08 дБ   -15.42 дБ      4:12 01-O Amor Em Paz
DR8       -4.98 дБ   -16.13 дБ      5:06 02-Retrato Em Branco E Preto
DR9       -4.95 дБ   -16.84 дБ      3:37 03-As Praias Desertas
DR8       -4.33 дБ   -15.05 дБ      5:42 04-Caminhos Cruzados
DR7       -5.01 дБ   -15.47 дБ      4:34 05-Dindi
DR7       -4.98 дБ   -14.89 дБ      4:58 06-Estrada Do Sol
DR7       -4.10 дБ   -12.73 дБ      4:20 07-Favela
DR10      -5.09 дБ   -17.24 дБ      5:40 08-Insensatez
DR8       -5.04 дБ   -15.99 дБ      3:41 09-Luiza
DR7       -4.96 дБ   -13.84 дБ      6:45 10-Outra Vez
--------------------------------------------------------------------------------

Количество треков: 10
Реальные значения DR: DR8

Частота:  2822400 Гц / Частота PCM: 352800 Гц
Каналов:  2
Разрядность:   1
Битрейт:  5645 кбит/с
Кодек:   DSD64
================================================================================
No seeders - write personal message to M0p94ok. Any questions - support@pro-jazz.com.
Нет сидеров - пишите в личку M0p94ok. Есть вопросы - support@pro-jazz.com
14:36
119
Нет комментариев. Ваш будет первым!