Вы используете незарегистрированную версию компонента "Вкладки"!

Поиск

2020 Becca Stevens and Elan Mehler - Pallet on Your Floor {Newvelle} [24-88.2]

2020 Becca Stevens and Elan Mehler - Pallet on Your Floor {Newvelle} [24-88.2]
Стили:
Дата издания диска:
18 декабря 2020
Битрейт аудио:
lossless
Доп. инфо:

Формат записи/Источник записи: [TR24][OF]
Наличие водяных знаков: Нет
Год издания/переиздания диска: 2020
Издатель (лейбл): Newvelle Records
Продолжительность: 00:34:46
Наличие сканов в содержимом раздачи: Только обложка альбома
Источник (релизер): qobuz

Контейнер: FLAC (*.flac)
Тип рипа: tracks
Разрядность: 24/88,2
Формат: PCM
Количество каналов: 2.0
Доп. информация: https://www.beccastevens.com/

Лог проверки качества
foobar2000 1.6 / Dynamic Range Meter 1.1.1
log date: 2020-12-18 16:32:35

--------------------------------------------------------------------------------
Analyzed: Becca Stevens / Pallet on Your Floor
--------------------------------------------------------------------------------

DR         Peak         RMS     Duration Track
--------------------------------------------------------------------------------
DR8       -0.50 dB   -12.27 dB      6:21 01-Elvis Presley Blues
DR8       -0.50 dB   -12.41 dB      5:51 02-But Beautiful
DR8       -0.50 dB   -11.70 dB      4:15 03-I Ain't Got Nothing but the Blues
DR10      -0.50 dB   -14.07 dB      4:40 04-Our Love is Here to Stay
DR9       -0.50 dB   -11.91 dB      4:05 05-Deep Purple
DR7       -0.50 dB    -9.93 dB      5:12 06-Just Squeeze Me
DR9       -0.50 dB   -12.32 dB      4:22 07-Make Me a Pallet on Your Floor
--------------------------------------------------------------------------------

Number of tracks:  7
Official DR value: DR8

Samplerate:        88200 Hz
Channels:          2
Bits per sample:   24
Bitrate:           2527 kbps
Codec:             FLAC
================================================================================
Any questions - support@pro-jazz.com. Есть вопросы - support@pro-jazz.com
12:41
131
Нет комментариев. Ваш будет первым!