Поиск

2021 Jakob Bro, Arve Henriksen, Jorge Rossy - Uma Elmo {ECM} [24-96]

2021 Jakob Bro, Arve Henriksen, Jorge Rossy - Uma Elmo {ECM} [24-96]
Битрейт аудио:
lossless
Доп. инфо:

Формат записи/Источник записи: [TR24][OF]
Наличие водяных знаков: Нет
Год издания/переиздания диска: 2021
Продолжительность: 01:01:46
Наличие сканов в содержимом раздачи: Буклет PDF
Источник (релизер): highresaudio
Контейнер: FLAC (*.flac)
Тип рипа: tracks
Разрядность: 24/96
Формат: PCM
Количество каналов: 2.0
Доп. информация: https://www.ecmrecords.com/shop/1605700788/uma-elmo-jakob-bro-arve-henriksen-jorge-rossy

Лог проверки качества
foobar2000 1.6 / Dynamic Range Meter 1.1.1
log date: 2021-02-12 10:59:39

--------------------------------------------------------------------------------
Analyzed: Jakob Bro / Uma Elmo
--------------------------------------------------------------------------------

DR         Peak         RMS     Duration Track
--------------------------------------------------------------------------------
DR16      -0.50 dB   -21.34 dB      9:18 01-Reconstructing A Dream
DR15      -0.50 dB   -23.11 dB      4:34 02-To Stanko
DR19      -0.50 dB   -24.17 dB      5:04 03-Beautiful Day
DR15      -3.43 dB   -26.05 dB      6:55 04-Morning Song
DR17      -0.50 dB   -22.57 dB     11:06 05-Housework
DR18      -1.66 dB   -25.64 dB      7:54 06-Music For Black Pigeons
DR19      -0.50 dB   -23.64 dB      5:56 07-Sound Flower
DR16      -3.36 dB   -25.90 dB      3:53 08-Slaraffenland
DR13      -6.58 dB   -24.93 dB      7:07 09-Morning Song (Var.)
--------------------------------------------------------------------------------

Number of tracks:  9
Official DR value: DR17

Samplerate:        96000 Hz
Channels:          2
Bits per sample:   24
Bitrate:           2191 kbps
Codec:             FLAC
================================================================================
No seeders - write personal message to M0p94ok. Any questions - support@pro-jazz.com.
Нет сидеров - пишите в личку M0p94ok. Есть вопросы - support@pro-jazz.com
22:54
144
Нет комментариев. Ваш будет первым!