Поиск

2021 Toboggan - Première Descente {Toboggan} [24-44.1]

2021 Toboggan - Première Descente {Toboggan} [24-44.1]
Стили:
Дата издания диска:
6 февраля 2021
Битрейт аудио:
lossless
Треклист:

1. Carburature. 10:04
2. Impro Ambiant. 1:46
3. Zouloulouzou. 14:22
4. Impro Jazz. 0:59
5. TanpYoupY. 10:46
6. Impro Harmonic. 1:56
7. Rezzz. 9:12
8. Impro Noise. 2:06
9. Blanchetta Cavayo. 9:01

Доп. инфо:

Формат записи/Источник записи: [TR24][OF]
Наличие водяных знаков: Нет
Год издания/переиздания диска: 2021
Продолжительность: 60:18 min
Наличие сканов в содержимом раздачи: 

Контейнер: FLAC (*.flac)
Тип рипа: tracks
Разрядность: 24/44,1
Формат: РСМ
Количество каналов: 2.0

Источник (релизер): bandcamp.com

Лог проверки качества
foobar2000 1.4.2 / Замер динамического диапазона (DR) 1.1.1
Дата отчёта:  2021-02-07 19:44:03

--------------------------------------------------------------------------------
Анализ:   Toboggan / Première Descente
--------------------------------------------------------------------------------

DR         Пики         RMS           Продолжительность трека
--------------------------------------------------------------------------------
DR10      -0.31 дБ   -11.71 дБ     10:04 01-Carburature
DR12      -0.31 дБ   -16.52 дБ      1:47 02-Impro Ambiant
DR9       -0.31 дБ   -11.75 дБ     14:23 03-Zouloulouzou
DR11      -0.31 дБ   -13.20 дБ      0:59 04-Impro Jazz
DR9       -0.31 дБ   -11.06 дБ     10:47 05-TanpYoupY
DR13      -0.31 дБ   -17.07 дБ      1:56 06-Impro Harmonic
DR9       -0.31 дБ   -11.58 дБ      9:13 07-Rezzz
DR11      -0.31 дБ   -14.70 дБ      2:07 08-Impro Noise
DR9       -0.31 дБ   -11.62 дБ      9:01 09-Blanchetta Cavayo
--------------------------------------------------------------------------------

Количество треков: 9
Реальные значения DR: DR11

Частота:   44100 Гц
Каналов:   2
Разрядность:   24
Битрейт:   1621 кбит/с
Кодек:   FLAC
================================================================================
Приватный:
Нет (DHT включён)
Размер:
689.03 Мб (722,495,405 байт) » файлов: 13
Участники:
0 раздают, 0 качают (0 участников всего)
Внешние участники:
5 раздают, 1 качают (6 участников всего) [ Обновить ]
For power users only: no seeders - write personal message to M0p94ok. Для power user: нет сидеров - пишите в личку M0p94ok.
17:01
65
Нет комментариев. Ваш будет первым!