Поиск

2015 Panam Panic - The Black Monk {Panam Panic} [24-44.1]

2015 Panam Panic - The Black Monk {Panam Panic} [24-44.1]
Стили:
Дата издания диска:
1 сентября 2015
Носитель:
WEB
Формат:
PCM
Тип рипа:
tracks
Контейнер:
FLAC (*.flac)
Разрядность/ЧД:
24/44,1
Битрейт аудио:
lossless
Время звучания:
00:45:41
Наличие сканов:
только обложка
Наличие водяных знаков:
нет
Страна-производитель диска (релиза):
France
Релизёр (источник):
M0p94ok

Треклист:

01. The Black Monk 04:14
02. 16h38 05:17
03. Red And Blue 05:36
04. The New Movement 03:24
05. Saturday Morning Pop Mood 05:08
06. Midwest Sun 04:40
07. Chemins Obscurs 05:07
08. Le Duc 03:27
09. Road Trip 05:35
10. Chebeya (Bonus Track) 03:07

Лог проверки качества
foobar2000 1.6.2 / Dynamic Range Meter 1.1.1
log date: 2021-04-12 18:44:48

--------------------------------------------------------------------------------
Analyzed: Panam Panic / The Black Monk
--------------------------------------------------------------------------------

DR         Peak         RMS     Duration Track
--------------------------------------------------------------------------------
DR8        0.00 dB    -9.96 dB      4:14 01-The Black Monk
DR7        0.00 dB    -8.78 dB      5:19 02-16h38
DR8        0.00 dB    -9.98 dB      5:37 03-Red and Blue
DR8        0.00 dB   -10.34 dB      3:26 04-The New Movement
DR7        0.00 dB    -9.35 dB      5:09 05-Saturday Morning Pop Mood
DR8        0.00 dB    -9.84 dB      4:41 06-Midwest Sun
DR9        0.00 dB   -11.29 dB      5:08 07-Chemins obscurs
DR10       0.00 dB   -11.46 dB      3:28 08-Le duc
DR9        0.00 dB   -12.09 dB      5:36 09-Road Trip
DR8        0.00 dB    -9.21 dB      3:12 10-Chebeya (Bonus Track)
--------------------------------------------------------------------------------

Number of tracks:  10
Official DR value: DR8

Samplerate:        44100 Hz
Channels:          2
Bits per sample:   24
Bitrate:           1670 kbps
Codec:             FLAC
================================================================================
Приватный:
Нет (DHT включён)
Размер:
530.73 Мб (556,514,460 байт) » файлов: 12
Участники:
3 раздают, 0 качают (3 участников всего)
Внешние участники:
--- [ Обновить ]
No seeders - write personal message to M0p94ok. Any questions - support@pro-jazz.com.
Нет сидеров - пишите в личку M0p94ok. Есть вопросы - support@pro-jazz.com
18:52
88
Нет комментариев. Ваш будет первым!