Поиск

2019 Phil Broadhurst Quintet - Positif {Rattle} [24-44.1]

2019 Phil Broadhurst Quintet - Positif {Rattle} [24-44.1]
Стили:
Битрейт аудио:
lossless

Треклист:

01. I'm Busy [4:43]
02. Queenstown [6:19]
03. Positif [8:44]
04. Sorrento Sunset [7:15]
05. Sunside [5:22]
06. K.B. [9:02]
07. Just Enough for Two [7:04]
08. Black Suede Boots [5:40]

Доп. инфо:

Формат записи/Источник записи: [TR24][OF]
Наличие водяных знаков: Нет
Год издания/переиздания диска: 2019
Издатель (лейбл): Rattle
Продолжительность: 00:54:09
Наличие сканов в содержимом раздачи: Нет

Контейнер: FLAC (*.flac)
Тип рипа: tracks
Разрядность: 24/44,1
Формат: LPCM
Количество каналов: 2.0

Источник (релизер): qobuz.com (Anakunda)

Лог проверки качества
foobar2000 1.5.1 beta 2 / Dynamic Range Meter 1.1.1
log date: 2019-12-17 12:42:34

--------------------------------------------------------------------------------
Analyzed: Phil Broadhurst Quintet / Positif
--------------------------------------------------------------------------------

DR         Peak         RMS     Duration Track
--------------------------------------------------------------------------------
DR11      -0.21 dB   -13.20 dB      4:43 01-I'm Busy
DR13      -0.25 dB   -14.86 dB      6:19 02-Queenstown
DR11      -0.13 dB   -13.72 dB      8:44 03-Positif
DR13      -3.34 dB   -21.44 dB      7:15 04-Sorrento Sunset
DR12      -0.28 dB   -15.30 dB      5:22 05-Sunside
DR12      -0.24 dB   -15.59 dB      9:02 06-K.B.
DR13      -0.28 dB   -16.26 dB      7:04 07-Just Enough for Two
DR11      -0.22 dB   -13.29 dB      5:40 08-Black Suede Boots
--------------------------------------------------------------------------------

Number of tracks:  8
Official DR value: DR12

Samplerate:        44100 Hz
Channels:          2
Bits per sample:   24
Bitrate:           1395 kbps
Codec:             FLAC
================================================================================
Приватный:
Нет (DHT включён)
Размер:
504.63 Мб (529,143,680 байт) » файлов: 10
Участники:
0 раздают, 0 качают (0 участников всего)
Внешние участники:
5 раздают, 1 качают (6 участников всего) [ Обновить ]
No seeders - write personal message to M0p94ok. Нет сидеров - пишите в личку M0p94ok.
19:53
95
Нет комментариев. Ваш будет первым!