Поиск

2020 Femi Kuti - Stop The Hate {Partisan} [24-48]

2020 Femi Kuti - Stop The Hate {Partisan} [24-48]
Стили:
Дата издания диска:
6 ноября 2020
Битрейт аудио:
lossless

Треклист:

01 - Pà Pá Pà 03:22
02 - As We Struggle Everyday 04:29
03 - Stop the Hate 05:19
04 - Land Grab 02:32
05 - Na Bigmanism Spoil Government 04:04
06 - You Can't Fight Corruption With Corruption 05:19
07 - Show of Shame 03:22
08 - Privatisation 04:41
09 - Young Boy / Young Girl 07:56
10 - Set Your Minds and Souls Free 06:04

Доп. инфо:

Формат записи/Источник записи: [TR24][OF]
Год издания/переиздания диска: 2021
Издатель (лейбл): Partisan Records
Продолжительность: 00:47:08
Наличие сканов в содержимом раздачи: Нет

Контейнер: FLAC (*.flac)
Тип рипа: tracks
Разрядность: 24/48
Количество каналов: 2.0

Источник (релизер): Qobuz

Лог проверки качества
foobar2000 1.4.3 / Dynamic Range Meter 1.1.1
log date: 2021-02-06 07:31:20

--------------------------------------------------------------------------------
Analyzed: Femi Kuti / Stop The Hate

--------------------------------------------------------------------------------

DR         Peak         RMS     Duration Track
--------------------------------------------------------------------------------
DR7       -0.11 dB    -8.14 dB      3:22 01-Pà Pá Pà
DR6       -0.11 dB    -7.59 dB      4:30 02-As We Struggle Everyday
DR8       -0.11 dB    -9.22 dB      5:20 03-Stop the Hate
DR8       -0.11 dB    -9.21 dB      2:32 04-Land Grab
DR9       -0.11 dB   -10.54 dB      4:05 05-Na Bigmanism Spoil Government
DR8       -0.11 dB    -9.77 dB      5:20 06-You Can't Fight Corruption With Corruption
DR8       -0.11 dB    -8.59 dB      3:23 07-Show of Shame
DR7       -0.11 dB    -8.60 dB      4:41 08-Privatisation
DR7       -0.11 dB    -8.35 dB      7:57 09-Young Boy / Young Girl
DR7       -0.11 dB    -8.29 dB      6:04 10-Set Your Minds and Souls Free
--------------------------------------------------------------------------------

Number of tracks:  10
Official DR value: DR7

Samplerate:        48000 Hz
Channels:          2
Bits per sample:   24
Bitrate:           1747 kbps
Codec:             FLAC
================================================================================
Приватный:
Нет (DHT включён)
Размер:
604.89 Мб (634,267,993 байт) » файлов: 15
Участники:
0 раздают, 0 качают (0 участников всего)
Внешние участники:
7 раздают, 2 качают (9 участников всего) [ Обновить ]
No seeders - write personal message to M0p94ok. Any questions - support@pro-jazz.com.
Нет сидеров - пишите в личку M0p94ok. Есть вопросы - support@pro-jazz.com
00:16
96
Нет комментариев. Ваш будет первым!