Вы используете незарегистрированную версию компонента "Вкладки"!

Поиск

2020 Asmundsen & Co - Gnus {Losen} [24-44.1]

2020 Asmundsen & Co - Gnus {Losen} [24-44.1]
Стили:
Дата записи диска:
8 января 2020
Место записи:
Oslo Konserthus (Lille sal), Vika, Norway
Дата издания диска:
20 декабря 2020
Номер по каталогу:
LOS 253-2
Носитель:
WEB
Формат:
PCM
Тип рипа:
tracks
Контейнер:
FLAC (*.flac)
Количество каналов:
2.0
Разрядность/ЧД:
24/44,1
Битрейт аудио:
lossless
Время звучания:
00:57:24
Наличие сканов:
только обложка
Страна-производитель диска (релиза):
Norway
Релизёр (источник):
M0p94ok
Доп. инфо:

Mixed September 11, 2020 by (...) at Musikkloftet, Asker, Norway
Mastered October 2020 by (...) at Musikkloftet

Лог проверки качества
foobar2000 1.6.2 / Dynamic Range Meter 1.1.1
log date: 2021-04-12 15:19:10

--------------------------------------------------------------------------------
Analyzed: Asmundsen & Co / Gnus
--------------------------------------------------------------------------------

DR         Peak         RMS     Duration Track
--------------------------------------------------------------------------------
DR11      -0.20 dB   -12.05 dB      8:52 01-Gnus
DR12      -0.47 dB   -15.58 dB      8:41 02-Her (Aner ikke)
DR12      -0.20 dB   -13.72 dB      7:43 03-Busken Smoul
DR11      -0.20 dB   -13.25 dB      5:21 04-Song for an Absent Piano Player
DR12      -0.55 dB   -15.77 dB      7:19 05-Liten Frostmåler
DR11      -0.20 dB   -13.30 dB      6:06 06-Osckars Drøm
DR14      -0.29 dB   -18.33 dB      5:19 07-In a Dream
DR12      -0.20 dB   -13.97 dB      8:04 08-My Boy
--------------------------------------------------------------------------------

Number of tracks:  8
Official DR value: DR12

Samplerate:        44100 Hz
Channels:          2
Bits per sample:   24
Bitrate:           1606 kbps
Codec:             FLAC
================================================================================
Any questions - support@pro-jazz.com. Есть вопросы - support@pro-jazz.com
15:39
121
Нет комментариев. Ваш будет первым!