Поиск

2015 VA - Venus The Amazing Super Audio CD Sampler Vol.10 {Venus} [DSD64]

2015 VA - Venus The Amazing Super Audio CD Sampler Vol.10 {Venus} [DSD64]
Стили:
Издатель (лейбл):
Номер по каталогу:
VHGD-115
Битрейт аудио:
lossless
Треклист:

01. La Cubana Caliente - Eddie Higgins Trio《 E. Higgins 》
02. Dear Old Stockholm - Steve Kuhn Trio《 Trad 》
03. Minor Swing - Ken Peplowski Gypsy Jazz Band《 D. Reinhardt 》
04. Tea For Two - Simone《 I. Caesar - V. Youmans 》
05. You'd Be So Nice To Come Home To - Lee Konitz Quartet《 C. Poter 》
06. Blue Skies - Nicki Parrott《 I. Berlin 》
07. Alone Together - Eric Alexander Quartet《 A. Schwartz 》
08. La Mentira ( Yellow Days ) - Bob Kindred Quartet《 A. Carrillo 》
09. Swan Lake - Cyrus Chestnut Trio《 P. Tchaikovsky 》
10. Blue And Sentimental - Eddie Higgins Trio《 C. Basie 》
11. My Favorite Things - Nicki Parrott《 R. Rodgers - O. Hammerstein 》
12. Io Che Non Vivo Senza Te - Massimo Farao' Trio《 P. Donaggio 》
13. Softly As In A Morning Sunrise - John Di Martino's Romantic Jazz Trio《 S. Romberg 》
14. My Funny Valentine - Bill Crow Quartet《 R. Rodgers 》
15. I Will Wait For You - Alexis Cole With One For All《 N. Gimbel - M. Legrand 》

Доп. инфо:

Формат записи/Источник записи: [SACD-R][OF]
Наличие водяных знаков: Нет
Издание: Sampler
Год издания диска: 2015
Продолжительность: 01:28:47
Наличие сканов в содержимом раздачи: Нет

Контейнер: ISO (*.iso)
Тип рипа: image
Разрядность: 64 (2,8 MHz/1 Bit)
Формат: DSD
Количество каналов: 2.0

Источник: venusrecords

Лог проверки качества
foobar2000 1.6.4 / Замер динамического диапазона (DR) 1.1.1
Дата отчёта:  2021-02-06 19:59:58

--------------------------------------------------------------------------------
Анализ:   Various Artists / VENUS THE AMAZING SUPER AUDIO CD SAMPLER VOL.10
--------------------------------------------------------------------------------

DR         Пики         RMS           Продолжительность трека
--------------------------------------------------------------------------------
DR6       -4.33 дБ   -11.85 дБ      5:20 01-La Cubana Caliente
DR7       -4.16 дБ   -12.90 дБ      6:30 02-Dear Old Stockholm
DR8       -4.27 дБ   -13.24 дБ      4:33 03-Minor Swing
DR7       -4.41 дБ   -14.71 дБ      5:54 04-Tea For Two
DR9       -4.44 дБ   -15.66 дБ      6:12 05-You'd Be So Nice To Come Home To
DR8       -4.30 дБ   -13.12 дБ      3:43 06-Blue Skies
DR6       -3.98 дБ   -10.70 дБ      7:29 07-Alone Together
DR9       -4.24 дБ   -16.00 дБ      6:22 08-La Mentira ( Yellow Days )
DR7       -4.02 дБ   -12.61 дБ      5:50 09-Swan Lake
DR8       -4.54 дБ   -15.60 дБ      6:01 10-Blue And Sentimental
DR6       -4.23 дБ   -12.50 дБ      4:43 11-My Favorite Things
DR8       -4.37 дБ   -13.35 дБ      6:14 12-Io Che Non Vivo Senza Te
DR7       -4.20 дБ   -13.39 дБ      6:09 13-Softly As In A Morning Sunrise
DR7       -4.37 дБ   -12.94 дБ      8:17 14-My Funny Valentine
DR8       -3.82 дБ   -12.91 дБ      5:31 15-I Will Wait For You
--------------------------------------------------------------------------------

Количество треков: 15
Реальные значения DR: DR7

Частота:  2822400 Гц / Частота PCM: 352800 Гц
Каналов:  2
Разрядность:   1
Битрейт:  5645 кбит/с
Кодек:   DSD64
================================================================================
Приватный:
Нет (DHT включён)
Размер:
3.56 Гб (3,820,795,629 байт) » файлов: 4
Участники:
0 раздают, 0 качают (0 участников всего)
Внешние участники:
12 раздают, 4 качают (16 участников всего) [ Обновить ]
No seeders - write personal message to M0p94ok. Нет сидеров - пишите в личку M0p94ok.
14:12
85
Нет комментариев. Ваш будет первым!