Поиск

2015 Najee - You, Me And Forever {Shanachie} [24-44.1]

2015 Najee - You, Me And Forever {Shanachie} [24-44.1]
Стили:
Место записи:
Big Suprise Music, Encino, CA Boobescoot Music Studio CDS Studio, Wallingford, CT Champman Recording & MAstering MO Fan Recording Studio, Studio City CA GCR Audio, Buffalo, NY Hybrid Productions, Seattle,WA Livingston Studio 2, London, England Luminous Sounds, Dallas,TX SanctiFLY Studios, Philadelphia, PA
Дата издания диска:
23 июня 2015
Издатель (лейбл):
Номер по каталогу:
SH 5435
Носитель:
WEB
Формат:
PCM
Тип рипа:
tracks
Контейнер:
FLAC (*.flac)
Количество каналов:
2.0
Разрядность/ЧД:
24/44,1
Битрейт аудио:
lossless
Время звучания:
00:54:27
Наличие сканов:
только обложка
Наличие водяных знаков:
нет
Страна-производитель диска (релиза):
USA
Релизёр (источник):
M0p94ok

Треклист:

01. Air. (6:08)
02. Fly With The Wind. (3:50)
03. Wave. (5:23)
04. Biggest Part Of Me. (5:46)
05. Signature. (5:01)
06. Butterfly Girl. (5:19)
07. Give It All We've Got. (5:02)
08. You, Me And Forever. (4:50)
09. Spectrum. (4:14)
10. Jannah. (8:54)

Лог проверки качества
foobar2000 1.3.16 / Dynamic Range Meter 1.1.1
log date: 2019-05-15 18:54:05

--------------------------------------------------------------------------------
Analyzed: Najee / You, Me And Forever
--------------------------------------------------------------------------------

DR         Peak         RMS     Duration Track
--------------------------------------------------------------------------------
DR7       -0.40 dB    -9.47 dB      6:09 01-Air
DR8       -0.40 dB   -10.04 dB      3:51 02-Fly With The Wind
DR7       -0.51 dB    -8.74 dB      5:24 03-Wave
DR7       -0.40 dB    -9.31 dB      5:47 04-Biggest Part Of Me
DR8       -0.40 dB    -9.52 dB      5:01 05-Signature
DR8       -0.40 dB   -10.61 dB      5:19 06-Butterfly Girl
DR9       -0.40 dB   -11.04 dB      5:03 07-Give It All We've Got
DR8       -0.42 dB   -10.96 dB      4:51 08-You, Me And Forever
DR8       -0.40 dB    -9.79 dB      4:15 09-Spectrum
DR9       -0.40 dB   -11.23 dB      8:55 10-Jannah
--------------------------------------------------------------------------------

Number of tracks:  10
Official DR value: DR8

Samplerate:        44100 Hz
Channels:          2
Bits per sample:   24
Bitrate:           1568 kbps
Codec:             FLAC
================================================================================
Приватный:
Нет (DHT включён)
Размер:
644.92 Мб (676,251,471 байт) » файлов: 13
Участники:
3 раздают, 0 качают (3 участников всего)
Внешние участники:
--- [ Обновить ]
No seeders - write personal message to M0p94ok. Any questions - support@pro-jazz.com.
Нет сидеров - пишите в личку M0p94ok. Есть вопросы - support@pro-jazz.com
22:08
136
Нет комментариев. Ваш будет первым!