Поиск

2017 Ben Wilcock & The Jelly Rolls - The Phantom Canoe {THICK} [24-44.1]

2017 Ben Wilcock & The Jelly Rolls - The Phantom Canoe {THICK} [24-44.1]
Дата издания диска:
21 апреля 2020
Битрейт аудио:
lossless
Доп. инфо:

Формат записи/Источник записи: [TR24][OF]
Наличие водяных знаков: Нет
Год издания/переиздания диска: 2017
Издатель (лейбл): THICK Records
Продолжительность: 00:39:09
Наличие сканов в содержимом раздачи: Нет

Контейнер: FLAC (*.flac)
Тип рипа: tracks
Разрядность: 24/44,1
Формат: LPCM
Количество каналов: 2.0

Источник (релизер): thickrecords.bandcamp.com (herms)

Лог проверки качества
foobar2000 1.4.6 / Замер динамического диапазона (DR) 1.1.1
Дата отчёта:  2021-02-06 17:36:34

--------------------------------------------------------------------------------
Анализ:   Ben Wilcock & the Jelly Rolls / The Phanton Canoe
--------------------------------------------------------------------------------

DR         Пики         RMS           Продолжительность трека
--------------------------------------------------------------------------------
DR11      -0.48 дБ   -14.79 дБ      5:46 01-Kataore
DR13      -0.48 дБ   -15.92 дБ      5:12 02-Hinemoa
DR13      -0.48 дБ   -17.20 дБ      9:13 03-Hinemoa Swim
DR13      -0.48 дБ   -16.02 дБ      5:13 04-Man And His Dog
DR13      -0.48 дБ   -16.46 дБ      5:51 05-The Phantom Canoe; Part A And B (The Eruption)
DR13      -0.48 дБ   -15.86 дБ      3:23 06-Aftermath
DR14      -0.48 дБ   -16.45 дБ      1:53 07-Hinemoa And Tutanekai
DR11      -0.48 дБ   -13.18 дБ      2:39 08-Potakatawhiti
--------------------------------------------------------------------------------

Количество треков: 8
Реальные значения DR: DR13

Частота:   44100 Гц
Каналов:   2
Разрядность:   24
Битрейт:   1475 кбит/с
Кодек:   FLAC
================================================================================
No seeders - write personal message to M0p94ok. Any questions - support@pro-jazz.com.
Нет сидеров - пишите в личку M0p94ok. Есть вопросы - support@pro-jazz.com
20:50
118
Нет комментариев. Ваш будет первым!