Вы используете незарегистрированную версию компонента "Вкладки"!

Поиск

2021 Tim Langedijk Trio - Some Other Time {G2} [24-96]

2021 Tim Langedijk Trio - Some Other Time {G2} [24-96]
Стили:
Дата издания диска:
2 июля 2021
Носитель:
WEB
Формат:
PCM
Тип рипа:
tracks
Контейнер:
FLAC (*.flac)
Количество каналов:
2.0
Разрядность/ЧД:
24/96
Битрейт аудио:
lossless
Время звучания:
00:22:53
Наличие сканов:
только обложка
Лог проверки качества
foobar2000 1.4.2 / Dynamic Range Meter 1.1.1
log date: 2021-07-04 18:51:39

--------------------------------------------------------------------------------
Analyzed: Tim Langedijk Trio / Some Other Time
--------------------------------------------------------------------------------

DR         Peak         RMS     Duration Track
--------------------------------------------------------------------------------
DR10       0.00 dB   -13.38 dB      7:09 01-Some Other Time
DR13      -0.14 dB   -15.43 dB      3:37 02-All of You
DR11       0.00 dB   -14.73 dB      3:43 03-Blue in Green
DR11      -0.20 dB   -14.03 dB      3:51 04-Afterglow Blues
DR11      -0.04 dB   -14.72 dB      4:32 05-Holy Grail
--------------------------------------------------------------------------------

Number of tracks:  5
Official DR value: DR11

Samplerate:        96000 Hz
Channels:          2
Bits per sample:   24
Bitrate:           2560 kbps
Codec:             FLAC
================================================================================
Any questions - support@pro-jazz.com. Есть вопросы - support@pro-jazz.com
23:50
40
Нет комментариев. Ваш будет первым!