Вы используете незарегистрированную версию компонента "Вкладки"!

Поиск

2012 Ulf Wakenius, Lars Danielsson, Vincent Peirani - Vagabond (2019) {ACT Music} [24-88.2]

2012 Ulf Wakenius, Lars Danielsson, Vincent Peirani - Vagabond (2019) {ACT Music} [24-88.2]
Дата записи диска:
9 августа - 11 августа 2011
Место записи:
Nilento Studio, Gothenburg, Sweden
Дата издания диска:
27 января 2021
Издатель (лейбл):
Носитель:
WEB
Формат:
PCM
Тип рипа:
tracks
Контейнер:
FLAC (*.flac)
Количество каналов:
2.0
Разрядность/ЧД:
24/88,2
Битрейт аудио:
lossless
Время звучания:
00:53:05
Наличие сканов:
буклет pdf
Лог проверки качества
foobar2000 1.6.2 / Dynamic Range Meter 1.1.1
log date: 2021-11-19 17:29:31

--------------------------------------------------------------------------------
Analyzed: Ulf Wakenius / Vagabond
--------------------------------------------------------------------------------

DR         Peak         RMS     Duration Track
--------------------------------------------------------------------------------
DR7       -0.61 dB   -10.22 dB      5:20 01-1 Vagabond
DR10      -0.61 dB   -12.74 dB      6:17 02-2 Message in a Bottle
DR7       -0.61 dB    -9.38 dB      5:01 03-3 Bretagne
DR12      -0.61 dB   -16.31 dB      4:39 04-4 Psalmen
DR8       -0.61 dB   -10.73 dB      6:35 05-5 Breakfast in Bagdad
DR12      -0.61 dB   -15.28 dB      3:21 06-6 Song for Japan
DR10      -0.61 dB   -12.72 dB      4:31 07-7 Birds and Bees
DR10      -0.61 dB   -13.38 dB      3:54 08-8 Praying
DR8       -0.61 dB   -10.07 dB      5:07 09-9 Chorinho
DR9       -0.61 dB   -13.21 dB      5:24 10-10 Witchi-Tai-To
DR13      -0.61 dB   -16.70 dB      2:54 11-11 Encore
--------------------------------------------------------------------------------

Number of tracks:  11
Official DR value: DR10

Samplerate:        88200 Hz
Channels:          2
Bits per sample:   24
Bitrate:           2411 kbps
Codec:             FLAC
================================================================================
Any questions - support@pro-jazz.com. Есть вопросы - support@pro-jazz.com
21:56
32
Нет комментариев. Ваш будет первым!