Вы используете незарегистрированную версию компонента "Вкладки"!

Поиск

2021 Frédéric Alarie - Mega Bass {2xHD} [24-192]

2021 Frédéric Alarie - Mega Bass {2xHD} [24-192]
Стили:
Дата издания диска:
11 июня 2021
Издатель (лейбл):
Носитель:
WEB
Формат:
PCM
Тип рипа:
tracks
Контейнер:
FLAC (*.flac)
Количество каналов:
2.0
Разрядность/ЧД:
24/192
Битрейт аудио:
lossless
Время звучания:
00:35:58
Наличие сканов:
буклет pdf
Лог проверки качества
foobar2000 1.4.2 / Dynamic Range Meter 1.1.1
log date: 2021-07-04 18:47:29

--------------------------------------------------------------------------------
Analyzed: Frédéric Alarie (bass): Michel Lambert / Mega Bass (1-2)
          Frédéric Alarie / Mega Bass (3-9)
--------------------------------------------------------------------------------

DR         Peak         RMS     Duration Track
--------------------------------------------------------------------------------
DR16      -0.49 dB   -20.67 dB      1:32 06-Final Exit part 1
DR16      -4.79 dB   -28.49 dB      2:54 08-Final Exit part 2
DR14       0.00 dB   -20.42 dB      5:56 01-Exchange
DR15      -1.94 dB   -23.01 dB      7:13 02-Miséricorde
DR14       0.00 dB   -19.24 dB      4:40 03-Mother Earth (Mère terre)
DR13       0.00 dB   -17.04 dB      4:44 04-George
DR12      -1.66 dB   -17.88 dB      2:33 05-The Gift (Le Don)
DR14      -0.11 dB   -20.80 dB      5:27 07-Sans trop
DR11      -3.94 dB   -26.29 dB      0:59 09-F4
--------------------------------------------------------------------------------

Number of tracks:  9
Official DR value: DR14

Samplerate:        192000 Hz
Channels:          2
Bits per sample:   24
Bitrate:           4549 kbps
Codec:             FLAC
================================================================================
Any questions - support@pro-jazz.com. Есть вопросы - support@pro-jazz.com
15:44
37
Нет комментариев. Ваш будет первым!