Вы используете незарегистрированную версию компонента "Вкладки"!

Поиск

2020 Ulrich Drechsler - Caramel {Yellowbird} [24-48]

2020 Ulrich Drechsler - Caramel {Yellowbird} [24-48]
Стили:
Место записи:
4tune Studios, Wien, Austria
Носитель:
WEB
Формат:
PCM
Тип рипа:
tracks
Контейнер:
FLAC (*.flac)
Количество каналов:
2.0
Разрядность/ЧД:
24/48
Битрейт аудио:
lossless
Время звучания:
01:38:49
Наличие сканов:
только обложка
Лог проверки качества
foobar2000 1.6.2 / Dynamic Range Meter 1.1.1
log date: 2021-11-23 10:38:36

--------------------------------------------------------------------------------
Analyzed: Ulrich Drechsler / Caramel
--------------------------------------------------------------------------------

DR         Peak         RMS     Duration Track
--------------------------------------------------------------------------------
DR9       -0.91 dB   -13.68 dB      8:07 01-Entireness
DR11       0.00 dB   -15.10 dB      8:25 02-Impulse
DR12      -1.09 dB   -17.14 dB      5:32 03-Lucidity
DR12      -0.68 dB   -15.89 dB      6:07 04-Intuition
DR11      -0.98 dB   -14.49 dB      4:55 05-Open the Gates
DR9        0.00 dB   -14.76 dB      5:32 06-The Weaving Princess
DR13       0.00 dB   -17.23 dB      4:23 07-Sapience
DR10       0.00 dB   -12.73 dB      5:21 08-Rise Above the Senses
DR12       0.00 dB   -16.86 dB      9:00 09-Mirror and Reflection
DR11       0.00 dB   -14.24 dB      6:35 10-Infinity
DR13      -0.74 dB   -18.18 dB      6:28 11-Equilibrium
DR11       0.00 dB   -15.81 dB      8:04 12-Entireness (German Version)
DR12       0.00 dB   -15.74 dB      8:24 13-Impulse (German Version)
DR12      -0.38 dB   -15.39 dB      6:33 14-Infinity (German Version)
DR11      -1.27 dB   -17.56 dB      5:25 15-The Weaving Princess (German Version)
--------------------------------------------------------------------------------

Number of tracks:  15
Official DR value: DR11

Samplerate:        48000 Hz
Channels:          2
Bits per sample:   24
Bitrate:           1454 kbps
Codec:             FLAC
================================================================================
Any questions - support@pro-jazz.com. Есть вопросы - support@pro-jazz.com
11:57
35
Нет комментариев. Ваш будет первым!