Вы используете незарегистрированную версию компонента "Вкладки"!

Поиск

1961 Art Blakey & The Jazz Messengers - Meet You at the Jazz Corner of the World, vol. 2 {Music Manager} [24-48]

1961 Art Blakey & The Jazz Messengers - Meet You at the Jazz Corner of the World, vol. 2 {Music Manager} [24-48]
Стили:
Дата записи диска:
14 декабря 1960
Место записи:
Birdland Jazzclub, New York City, NY, USA
Носитель:
WEB
Формат:
PCM
Тип рипа:
tracks
Контейнер:
FLAC (*.flac)
Количество каналов:
2.0
Разрядность/ЧД:
24/48
Битрейт аудио:
lossless
Время звучания:
00:41:11
Наличие сканов:
только обложка
Лог проверки качества
foobar2000 1.4.6 / Dynamic Range Meter 1.1.1
log date: 2021-07-01 21:34:23

--------------------------------------------------------------------------------
Analyzed: Art Blakey / Meet You at the Jazz Corner of the World
--------------------------------------------------------------------------------

DR         Peak         RMS     Duration Track
--------------------------------------------------------------------------------
DR10       0.00 dB   -11.48 dB     13:09 01-High Modes (Live)
DR10       0.00 dB   -12.05 dB      8:34 02-Night Watch (Live)
DR10       0.00 dB   -12.03 dB      8:27 03-The Things I Love (Live)
DR10       0.00 dB   -12.14 dB      9:27 04-The Summit (Live)
DR9        0.00 dB   -11.66 dB      1:36 05-The Theme (Live)
--------------------------------------------------------------------------------

Number of tracks:  5
Official DR value: DR10

Samplerate:        48000 Hz
Channels:          2
Bits per sample:   24
Bitrate:           1399 kbps
Codec:             FLAC
================================================================================
Any questions - support@pro-jazz.com. Есть вопросы - support@pro-jazz.com
16:39
31
Нет комментариев. Ваш будет первым!